<?xml version="1.0" standalone="no"?>
<!DOCTYPE svg PUBLIC "-//W3C//DTD SVG 1.1//EN" "http://www.w3.org/Graphics/SVG/1.1/DTD/svg11.dtd">
<svg xmlns="http://www.w3.org/2000/svg">
<defs >
<font id="CaesarDressing" horiz-adv-x="459" ><font-face
    font-family="Caesar Dressing"
    units-per-em="1024"
    panose-1="2 0 0 0 0 0 0 0 0 0"
    ascent="1017"
    descent="-226"
    alphabetic="0" />
<glyph unicode=" " glyph-name="space" horiz-adv-x="358" />
<glyph unicode="!" glyph-name="exclam" horiz-adv-x="265" d="M66 467Q66 478 65 488T63 510Q63 566 66 621T70 732Q78 739 80 739T85 741Q87 739 91 738T97 736Q102 736 103 739T112 743Q115 743 118 742T123 738Q130 740 132 739T135 742Q147 740 149 737T154
733Q163 737 164 736T168 735Q174 734 177 734T182 732Q184 728 184 719T186 703Q184 692 184 681T184 657Q184 652 183 648T182 639Q182 616 182 595T181 550Q181 541 182 532T183 513Q183 501 183 488T184 463Q184 452 184 450T183 445Q183 440 183 435T184 425Q184
421 184 417T183 408Q183 400 184 394T186 381Q186 377 185 374T183 367Q182 361 182 355T182 344Q182 327 182 310T181 275Q181 266 181 255T176 236Q171 236 168 238T162 240Q157 240 155 235T147 230Q140 233 136 230T130 225Q122 228 115 229T100 234Q95 234
94 230T90 225Q85 224 80 224T70 222Q63 256 64 290T65 360V396Q65 411 65 415T65 425Q65 436 65 446T66 467ZM213 50Q213 40 214 35Q212 30 208 28T198 22Q189 23 187 20T184 12Q172 10 170 12T166 14Q162 14 158 10T151 4Q147 4 144 4T137 5Q129 -3 125 -5T115
-8Q110 -3 103 8T92 23Q84 40 77 58T61 93Q62 101 68 104T81 108Q87 110 89 115T96 120Q103 125 112 126T126 133Q138 130 145 133T155 138L168 137Q171 132 178 120T193 94T207 68T213 50Z" />
<glyph unicode="&quot;" glyph-name="quotedbl" horiz-adv-x="271" d="M173 781Q175 779 176 776T182 773Q197 777 200 776T205 769Q210 768 216 769Q229 767 231 763Q238 763 240 760T246 756Q250 743 250 730T250 702Q250 689 250 676T251 649Q251 636 251 623T250
595Q244 591 245 587T243 581Q242 575 242 570T239 558Q237 558 234 559T228 561Q222 572 217 571T206 570Q200 570 197 573T189 577Q186 586 182 590Q180 588 178 585T174 582Q170 585 167 588T163 593L165 605Q164 651 164 687Q164 707 164 727T162 767Q164 770
166 775T173 781ZM98 781Q103 781 105 776T111 767Q110 747 110 727T109 687Q109 669 109 651T111 614L110 603Q109 591 106 588T100 583Q95 582 93 585T89 590Q84 585 84 577Q78 577 76 574T67 570Q60 570 55 571T45 567Q41 561 39 560T33 558Q32 564 32 569T30
581Q27 583 27 587T26 593Q22 609 21 622T20 649Q20 663 21 676T23 702Q23 716 23 729T26 756Q30 757 32 760T38 763L52 764Q61 767 67 769Q69 775 72 776T80 779Q86 773 90 773Q93 773 95 776T98 781Z" />
<glyph unicode="#" glyph-name="numbersign" horiz-adv-x="632" d="M599 530Q599 526 601 518Q597 503 596 493T594 473T591 453T586 439Q577 438 568 438T548 439T528 441T516 443Q508 443 502 443T487 442Q480 426 479 414T476 390Q474 364 469 340T464 289V275Q472
274 480 274T497 274Q508 274 518 274T540 278Q548 274 560 274Q564 271 564 261T565 246Q565 241 564 236T562 224Q562 208 555 191Q556 184 554 179T549 167Q534 157 514 158T478 156Q467 159 457 159Q451 159 441 157Q433 128 430 97T413 39Q413 34 412 30T408
20Q394 13 378 13Q374 16 372 20T367 27Q361 26 357 22Q350 25 345 23Q335 25 332 20Q328 28 328 32Q328 41 330 50T333 71Q333 74 331 82Q334 99 337 117T341 153Q338 158 335 162T326 166Q316 166 310 167T295 168Q281 170 271 170T253 170Q245 156 241 137T233
96T228 55T222 18Q217 17 215 19T208 22Q206 23 201 24T188 26T174 27T164 29Q159 26 153 26Q145 26 135 31Q135 45 136 52T137 68Q140 102 144 126T152 176Q137 177 131 175T119 173Q106 173 94 172T68 171Q49 178 39 177Q37 188 37 196L36 185Q35 193 33 199T31
214Q31 219 32 225T34 237Q35 251 32 257Q32 260 32 263T33 268Q46 276 55 275T77 276Q92 281 104 281Q108 281 111 281T117 280Q122 281 126 281T134 281Q142 281 146 280Q156 284 158 285T168 291Q170 308 173 324T179 358Q183 375 188 395T193 432Q193 437 189
443T180 452L168 458Q157 454 153 455T145 457Q142 455 131 454T114 452Q109 452 105 453T96 455Q94 457 91 457T86 460Q76 465 77 467T78 473Q78 482 74 489Q75 493 75 496T74 501Q72 516 73 522T74 537Q74 541 72 545T70 553Q78 562 81 563Q90 562 91 562T95
563Q115 561 135 564T175 567Q179 567 182 566T190 567Q198 567 203 567Q213 567 218 568Q226 580 228 590T232 611Q236 635 241 659T251 708Q252 710 253 715T255 727T259 737T263 742Q266 740 272 737T282 731Q295 727 301 727Q308 720 316 719Q319 714 325 711Q332
705 332 698T332 685Q332 677 331 670T328 654Q323 633 323 612T317 569Q338 569 359 568T400 567Q403 567 405 570T409 577Q413 601 417 623T426 667Q428 681 431 692T436 718Q444 724 445 721T447 715Q465 708 475 708T497 708Q500 706 501 703T507 699Q509 693
517 687Q526 680 526 674Q526 670 526 667T527 658Q527 650 525 641T521 623Q517 608 515 593T511 562Q516 555 520 551T534 547Q548 547 562 546T591 540L597 530H599ZM366 271Q372 290 376 312T385 359T392 406T397 449Q388 455 382 457T369 459T357 459T342
462Q332 459 321 459T299 458Q296 453 293 449T287 439Q280 419 276 393T267 345Q264 335 260 322T256 299Q256 294 257 290T260 281Q281 277 302 276T344 274Q353 274 357 274T366 271Z" />
<glyph unicode="$" glyph-name="dollar" horiz-adv-x="336" d="M270 336Q282 333 286 322T291 299Q291 288 289 278T285 256T280 234T276 219Q271 210 264 207T249 199Q241 194 233 187T217 179Q219 170 218 167Q219 156 218 151T217 140Q215 112 217 89T220 41Q209
35 201 35Q196 35 190 36T179 37Q173 37 168 38T156 40Q146 45 146 47T142 54L140 105V138Q129 130 118 125T96 111Q92 112 87 112T78 115Q74 125 71 126T66 129Q64 131 64 134T62 140Q50 146 50 150T49 157Q43 166 44 169T43 177Q69 199 100 215T160 249Q165 253
171 256T183 264Q190 271 190 280Q155 312 128 337T69 386Q64 388 62 393T58 401Q56 405 53 406T48 410Q46 413 45 417T40 424Q36 428 31 428T20 432Q23 452 32 465T40 495Q63 513 81 529T119 560Q114 564 114 565T111 570L110 623Q110 630 110 640T109 660T109
681T111 698Q115 702 115 704T117 708T120 711T130 713Q136 711 141 709Q148 709 160 706T175 698Q179 697 182 697T188 694Q188 687 187 683Q188 673 187 668T186 656Q185 642 185 633T186 612Q190 616 195 623T207 637T219 649T230 655Q233 655 238 651T249 642T262
633T275 629Q284 629 290 625T305 616Q305 598 295 580T267 557Q256 544 247 538T228 523Q223 519 220 516T211 508Q208 505 197 497T173 479T150 461T140 449Q140 446 147 444T157 439Q168 431 181 419T205 395Q221 380 238 367T270 336Z" />
<glyph unicode="%" glyph-name="percent" horiz-adv-x="730" d="M182 396Q178 394 176 390T170 384Q168 383 162 380T154 377Q142 377 132 388T117 409Q115 413 112 415T105 422Q100 427 99 428T97 431Q86 444 78 452T62 469Q57 480 48 486Q43 498 35 508T20 529Q18
531 17 534T13 540Q15 545 12 551T10 563Q16 572 25 578Q31 590 33 601Q45 621 57 634T82 666Q87 671 90 677T98 688Q108 699 117 711T134 734Q140 733 142 735T150 741Q154 740 157 739T164 737Q174 727 183 721Q186 722 190 725T197 728Q204 728 205 723T213
718Q233 695 246 676T275 640Q281 635 286 632T296 623Q301 618 306 609T316 594Q316 590 318 582Q316 574 311 570T300 560Q300 552 303 549T309 541Q307 527 298 522T283 507Q277 503 275 501T271 496Q258 485 249 471T227 445Q222 436 218 433T215 424Q211 420
208 418T199 415Q192 414 192 412T190 408Q184 401 183 400T182 396ZM151 495Q175 512 194 539T213 597V609L152 628Q150 611 143 602T128 586T113 572T101 550Q115 536 124 521T151 495ZM720 193Q717 185 712 181T701 172Q701 164 704 161T710 153Q708 139 699
134T684 118Q678 115 676 113T673 108Q659 97 650 83T628 57Q623 48 619 45T615 35Q611 31 608 29T599 27Q591 17 589 17T586 15Q579 5 577 2T571 -4Q569 -5 562 -8T554 -11Q543 -11 533 -1T518 20Q516 25 513 27T507 34Q501 39 500 40T499 43Q487 56 479 64T463
81Q461 86 458 90T450 98Q444 110 436 119T421 140Q419 143 418 145T415 152Q417 157 414 163T411 174Q416 184 425 189Q433 205 433 213Q446 233 457 246T483 278Q487 283 491 289T500 300Q508 311 517 322T536 346Q541 345 543 347T550 352Q554 352 557 351T564
349Q573 341 584 332Q588 334 591 337T598 340Q604 340 605 335T613 330Q634 307 647 288T677 252Q682 247 686 243T696 233Q701 228 707 220T717 206Q717 203 718 200T720 193ZM556 105Q579 122 597 148T615 203V214L557 232Q555 215 549 207T535 192T520 179T509
158Q522 145 531 131T556 105ZM544 681Q544 668 541 656Q539 650 535 640T527 619T517 598T509 583Q506 576 503 570T497 557Q495 550 492 544T486 530Q484 525 481 521T474 511Q469 502 466 491T459 468Q445 437 432 407T408 345Q392 303 374 263T340 179Q338
177 337 174T333 168Q331 160 321 136T299 83T277 31T262 2Q256 3 253 7T245 14Q240 14 230 9Q223 14 214 13T200 22Q196 22 193 21T185 19Q180 19 179 23T177 32Q177 37 178 41T180 49L178 61Q179 69 185 83T199 114T214 147T224 172Q241 210 257 248T290 326Q304
358 316 391T342 457Q345 463 347 469T351 483Q361 497 366 512T379 543Q385 558 391 573T404 602Q419 631 433 661T458 723Q471 724 473 722T478 717Q486 716 492 716Q503 716 509 707Q524 710 524 705T529 699Q541 702 542 694T544 681Z" />
<glyph unicode="&amp;" glyph-name="ampersand" horiz-adv-x="402" d="M220 659Q230 663 239 671T258 687T278 701T300 708Q308 708 313 702T327 693Q337 685 340 682Q358 673 364 664T375 646Q377 636 372 633T362 623Q355 621 351 617T342 608Q334 605 328 600T314
589Q309 589 306 586T297 581Q293 573 289 571T278 566Q273 564 269 560T259 552Q255 549 247 545Q239 540 230 533T214 519Q209 518 206 515T197 511Q194 506 190 503T182 496Q185 491 186 488T194 483Q206 472 220 464T247 442Q258 436 265 431T280 420T295 410T308
398Q312 385 312 383T313 378Q312 369 311 369T310 365Q303 351 298 347T288 336Q255 320 221 297Q216 293 212 289T202 281Q198 279 194 277T187 272Q179 266 172 260T157 249Q163 231 172 227T189 214Q196 211 201 207T214 201Q219 193 226 189T242 181Q246 176
250 173T259 165Q271 160 284 150T311 131Q325 123 337 114T364 97Q365 92 368 90T376 84Q376 75 374 73T370 69Q366 55 365 52T363 47T358 45T347 44Q343 40 341 30Q331 26 328 22T323 18Q318 18 314 19T306 20Q296 26 296 26T293 25Q290 25 288 26T281 29Q279
31 271 37T252 49T233 60T222 65Q223 56 222 53T220 46Q220 38 221 30T223 14Q223 3 217 -1Q213 -1 208 -8T199 -17Q196 -17 193 -16T187 -14Q183 -14 177 -15T168 -18Q166 -16 166 -12T165 -6Q160 -6 158 -9T151 -13Q133 -12 128 -13Q124 -1 125 2T126 9Q125 45
125 72T126 128Q104 148 84 169T39 208Q37 213 33 215T26 222Q24 225 23 229T19 238Q20 242 23 244T28 249Q26 254 21 255T15 262Q17 268 22 268T26 279Q40 287 54 296T81 316Q92 321 98 328T116 342Q129 351 143 359T170 379Q166 388 159 391T144 399Q140 402
137 406T128 415Q117 425 105 435T82 458Q76 463 68 468T56 482Q47 496 41 502Q40 507 40 510T39 519Q41 524 45 525T55 529Q54 535 56 535T56 541Q71 556 89 569T125 595Q126 611 125 625T124 652Q124 675 124 701T130 751Q133 753 135 756T142 761Q149 761 156
756Q160 759 163 761T172 764Q177 764 181 763T190 760Q193 762 194 764T198 769Q202 762 202 760T201 754Q211 753 213 749T216 738T218 727T219 719Q219 711 219 703T218 686Q218 679 218 673T220 659Z" />
<glyph unicode="&apos;" glyph-name="quotesingle" horiz-adv-x="193" d="M63 781Q65 779 67 776T72 773Q76 773 82 779Q87 777 90 776T95 769Q106 768 107 767T110 764Q117 767 118 767T121 763Q128 763 130 760T136 756Q139 743 139 730T139 702Q139 689 140
676T141 649Q141 636 141 623T139 595Q134 591 134 587T132 581Q131 575 131 570T129 558Q118 563 118 564T117 567Q112 572 107 571T95 570Q89 570 87 573T79 577Q78 585 73 590Q71 588 69 585T63 582Q59 585 56 588T53 593L54 605Q53 633 53 651T53 687Q53 707
53 727T51 767Q54 770 56 775T63 781Z" />
<glyph unicode="(" glyph-name="parenleft" horiz-adv-x="413" d="M336 741Q347 743 352 743T361 739Q373 741 381 734T398 725Q406 719 412 711Q413 703 410 694T402 675T392 655T385 641Q380 632 374 625T365 606Q355 592 349 578T334 549Q331 544 328 538T321
526Q312 510 305 494T289 461Q287 456 285 451T281 440Q276 429 270 419T259 398Q247 372 234 346T207 294Q205 286 202 280T197 266Q212 231 232 199T271 134Q291 99 307 64T340 -7Q344 -18 346 -22T350 -30Q353 -42 361 -53Q366 -70 373 -84T386 -115Q383 -120
380 -125T373 -136Q366 -140 362 -146T352 -157Q337 -157 336 -155Q334 -155 332 -160T328 -168Q320 -169 317 -174T309 -183Q298 -184 294 -178T283 -170Q277 -159 270 -147T258 -126Q255 -119 251 -108T241 -85T231 -64T222 -47Q221 -43 220 -39T216 -31Q205
-11 202 0T193 22Q191 25 187 29T180 36Q172 58 161 78T138 119Q133 129 129 139T119 160Q116 165 112 170T104 182Q98 195 93 207T80 231Q78 243 76 244T73 247V258Q73 263 73 266T72 275Q84 290 89 305T97 329Q99 335 102 341T110 352Q115 365 120 377T131 401Q136
413 142 424T155 449Q157 454 159 460T165 473Q167 477 169 480T173 489Q178 501 183 513T196 537Q200 548 205 559T216 581Q218 585 219 589T222 596Q227 604 232 612T242 630Q248 640 252 651T262 673Q265 678 268 683T275 694Q292 722 304 752Q308 754 310 757T316
764Q321 762 327 758Q329 753 330 749T336 741Z" />
<glyph unicode=")" glyph-name="parenright" horiz-adv-x="413" d="M76 741Q83 747 85 758Q88 760 90 761T96 764Q99 761 101 758T109 752Q114 736 121 722T136 694Q139 689 143 684T150 673Q156 662 160 651T170 630Q175 621 180 613T189 596Q192 593 193 589T196
581Q201 570 207 559T216 537Q224 526 228 514T239 489Q241 484 243 481T248 473Q251 467 253 461T258 449Q263 436 269 425T282 401Q287 389 292 377T303 352Q305 347 308 341T314 329Q318 320 323 305T334 283Q340 270 340 267T340 258V247L332 231Q325 220 319
208T307 182Q304 176 300 171T294 160Q289 149 285 139T274 119Q263 98 252 78T231 36Q228 34 225 30T219 22Q214 11 211 0T203 -22Q195 -35 193 -39T190 -47Q186 -53 181 -63T172 -85T163 -107T155 -126Q150 -135 143 -147T130 -170Q122 -172 118 -178T105 -183Q98
-179 95 -174T84 -168Q83 -166 81 -161T77 -156L60 -157Q55 -152 51 -146T40 -136Q37 -131 33 -126T27 -115Q31 -98 38 -84T50 -53Q57 -44 61 -30Q66 -24 70 -14Q89 28 105 63T140 134Q160 167 180 199T216 266Q214 273 211 279T206 294Q191 320 179 346T153 398Q147
409 142 419T131 440Q129 445 127 450T123 461Q116 477 108 493T92 526Q89 532 86 538T79 549Q71 563 64 577T47 606Q44 617 39 624T28 641Q26 645 21 654T12 674T4 694T0 708Q4 715 6 718T13 725Q21 726 30 733T45 741Q53 744 59 744T69 748L76 741Z" />
<glyph unicode="*" glyph-name="asterisk" horiz-adv-x="423" d="M254 601Q258 605 261 609T269 618Q270 621 274 625T281 632Q289 637 297 647T313 667T330 687T346 702Q352 696 358 699Q368 691 371 689T376 684L382 671Q391 669 391 660Q400 652 403 647T406
636Q394 624 386 618T370 607Q365 603 363 601T356 596Q341 582 338 575Q327 568 317 558T296 539Q312 527 322 521T341 507Q346 503 355 497T376 485T397 473T414 465Q420 459 423 457Q424 451 422 448T420 440Q417 434 417 427Q414 425 412 423T406 419Q400 413
398 411Q399 402 392 399Q393 392 390 391T384 386Q364 393 353 401T329 416Q327 420 324 422T316 427Q303 432 291 444T265 461Q261 456 261 451T261 441Q259 435 258 430T256 419Q256 402 257 386T259 353Q259 348 259 343T257 333Q247 329 246 330T239 329Q232
333 227 326Q225 327 221 328T215 329Q204 328 200 328T194 331Q182 327 180 327T176 326Q171 329 171 333T171 343Q167 349 167 354T167 361Q167 384 170 405T174 449Q174 452 174 455T173 461Q157 453 149 443T128 424Q120 418 109 407T90 392Q85 394 81 402Q77
402 75 403T70 404Q66 412 62 413T55 417Q53 421 50 424T45 431Q36 430 34 434T31 444Q31 452 36 455Q42 470 57 477T83 497Q86 497 88 499T93 502Q94 502 99 506T111 514T124 522T131 526Q123 539 113 545T90 557T67 569T48 578Q43 581 37 583T27 589Q21 593 16
597T5 607Q0 622 4 626T15 630Q16 631 21 643T37 660Q41 675 48 680Q59 678 61 677T66 675Q77 668 84 661T96 651Q103 645 113 637T133 621T154 605T172 594V609Q172 632 170 655T168 701Q168 706 167 709T166 717L167 730Q169 734 171 738T177 745Q184 742 189
736Q192 738 194 740T200 741Q210 745 211 741Q221 744 222 746T226 750Q236 744 238 747T243 750Q249 742 251 737T254 725Q255 723 255 720T255 714Q255 691 254 668T252 622Q252 618 252 611T254 601Z" />
<glyph unicode="+" glyph-name="plus" horiz-adv-x="489" d="M459 372Q455 364 455 363T456 359Q451 347 450 334T443 308L425 293Q419 295 414 295Q395 291 377 291T340 288Q335 290 332 289T324 288Q310 283 308 278T306 265Q306 258 307 254Q303 232 304 210T303
165Q295 166 289 166Q281 168 275 168Q268 168 263 163Q253 167 245 167Q239 167 232 164L217 169Q207 163 199 163Q194 169 191 171Q191 178 191 195T187 218Q186 235 187 244T188 263Q188 268 188 273T186 284Q147 287 115 287T51 287Q46 287 40 291T25 295Q26
304 29 308Q25 321 25 322T26 328Q22 343 24 349T28 361Q26 366 20 370Q20 376 26 382Q52 382 75 382T119 383Q124 383 128 383T137 384Q151 384 161 384T184 390Q184 420 185 450T187 510Q198 513 204 513T215 512Q228 517 231 518T240 519Q254 518 256 524Q260
523 264 522T272 521Q284 523 289 523Q293 512 294 510T297 506Q299 497 299 487T299 467Q299 449 298 426T306 387H321Q347 387 373 389T427 394Q440 387 443 387Q448 384 448 383T450 377L459 372Z" />
<glyph unicode="," glyph-name="comma" horiz-adv-x="281" d="M151 131Q152 121 158 118T172 117Q177 106 180 105T187 101L199 95Q206 91 206 87T209 80Q208 73 205 67T201 52Q193 41 188 31T177 9Q175 4 173 -2T167 -13Q165 -16 163 -19T158 -27Q153 -35 149
-42T139 -57Q131 -56 131 -60T125 -65Q121 -70 118 -73T110 -81Q106 -79 104 -77T98 -72Q96 -60 93 -59T87 -58T80 -55T72 -45Q66 -29 63 -26Q60 -28 60 -32T58 -37Q56 -32 54 -29T51 -22L58 -12Q59 -7 58 -1Q79 29 96 61T128 126Q133 128 136 130T144 132L151
131Z" />
<glyph unicode="-" glyph-name="hyphen" horiz-adv-x="451" d="M435 376Q440 366 440 363T440 358Q438 349 440 346L437 329Q435 320 439 316Q437 310 437 305T435 294Q417 293 409 294T392 295Q371 295 350 295T307 299Q263 301 227 301Q210 302 194 303T161
304Q140 306 124 306T94 307Q86 307 78 306T59 305Q49 305 40 305T19 306Q17 313 18 317T19 327Q15 334 14 341T13 355Q13 360 13 366T15 377Q13 380 12 383T10 388Q12 396 13 399Q16 401 19 402T25 407Q44 410 64 410T103 409Q119 409 134 408T165 406Q184 404
203 404T243 404Q261 404 279 402T315 400Q373 400 433 394Q435 382 435 376Z" />
<glyph unicode="." glyph-name="period" horiz-adv-x="153" d="M92 138Q102 139 106 132T117 122Q126 110 129 107T132 95Q137 93 141 91T150 84Q153 78 153 71Q153 68 153 65T152 58Q147 53 142 49T133 38Q121 30 112 22T89 5Q83 1 78 -3T65 -10Q65 -6 62 -5T56
-1Q56 11 42 16Q39 25 33 31T22 46Q22 52 20 55T15 61Q5 61 3 68T0 83Q2 91 5 94T10 102Q21 112 36 126T62 147Q64 149 69 149T78 150H89Q91 145 92 144T92 138Z" />
<glyph unicode="/" glyph-name="slash" horiz-adv-x="419" d="M378 687Q378 674 375 662Q373 656 370 646T362 626T354 605T347 589Q341 575 337 562T327 537Q325 531 322 527T316 517Q311 507 309 496T301 474Q290 443 278 413T256 351Q242 309 226 269T197 185Q195
183 194 180T190 174Q188 167 179 143T160 90T140 38T126 8Q121 9 119 13T112 20Q105 20 99 14Q92 19 84 19T72 28Q68 28 65 27T58 26Q52 29 52 32T51 38Q51 43 52 46T53 55Q53 57 53 59T52 66Q53 76 58 90T70 121T83 153T93 177Q108 215 122 254T152 332Q164 364
174 397T198 463Q201 469 203 475T206 488Q214 502 219 517T230 549Q236 564 241 579T254 608Q263 630 272 652T290 696L301 729Q314 728 319 722Q327 722 331 722Q340 722 347 713Q361 716 361 711T366 706Q375 709 376 700T378 687Z" />
<glyph unicode="0" glyph-name="zero" horiz-adv-x="546" d="M522 384Q514 386 511 381Q515 371 519 362T527 343Q522 329 515 316T497 292Q494 287 490 281T483 268Q479 253 473 245T462 229Q458 224 450 211T434 181T418 151T407 129Q400 125 397 119T390 106Q388
92 379 84T365 63Q366 57 367 52T370 40Q362 37 359 34T347 31Q338 19 333 5T313 -17Q308 -16 306 -14T299 -9Q293 -11 287 -12T273 -14Q269 -14 266 -10T261 -4Q254 -1 251 1T244 5Q242 11 236 16Q225 17 220 24T213 40Q218 49 219 57Q211 74 201 88T179 117Q172
126 166 135T153 156Q148 161 145 164T138 173Q119 201 103 231T63 287Q55 297 48 306T32 325Q29 326 26 327T19 331Q16 336 14 340T10 351Q13 356 16 362T22 375Q24 380 26 385T30 395Q36 409 43 422T58 447Q70 464 80 481T103 514Q105 523 112 531T122 548Q132
561 140 575T156 603Q162 609 165 616T175 630Q178 638 182 644T189 659Q195 665 201 674T213 693T224 712T233 729Q241 732 244 739T256 751Q257 755 259 757T262 764Q274 760 283 760Q287 758 288 755T295 750Q300 752 301 756T307 765Q312 765 315 763T324 758Q332
747 338 736T351 713Q354 709 356 704T360 695Q368 684 375 673T390 650Q401 636 411 621T430 589Q442 567 452 548T476 505Q482 495 489 486T503 467Q510 457 515 447T528 428Q529 421 532 415T536 400Q536 395 531 391T522 384ZM394 358Q410 375 417 396Q414
401 411 405T402 415Q394 425 381 444T361 474L352 495Q347 506 342 515T331 536Q329 541 327 546T322 556Q318 561 314 565T308 577Q305 580 303 583T298 591Q276 561 261 535T228 481Q220 469 212 457T197 431Q193 423 186 414T172 394T159 373T152 359Q165 336
177 321T200 289Q209 270 219 254Q224 246 230 238T242 221Q254 208 262 193T285 166Q296 181 305 197T324 231Q334 248 343 264T359 299Q363 301 365 303T369 307Q374 321 381 332T394 358ZM332 424Q338 413 345 403T361 382Q364 380 368 378T372 370Q372 366
367 361T361 350Q356 347 353 343T346 334Q340 336 336 334T327 332Q316 326 314 324T309 318T303 312T291 307Q282 299 280 298Q276 298 274 299T268 302Q264 305 255 316T235 341T218 367T210 384Q216 394 218 396T225 399Q233 402 236 406T241 413T248 419T260
425Q268 436 271 438T279 440Q284 444 284 450T293 456Q308 448 318 438Q323 434 325 430T332 424Z" />
<glyph unicode="1" glyph-name="one" horiz-adv-x="335" d="M158 745Q157 733 159 727Q170 731 171 730Q176 733 178 738T184 748Q188 748 191 747T196 744Q212 749 216 741Q227 746 233 744T244 740Q247 738 249 736T255 733Q259 690 260 647T261 560Q261 532
260 505T258 450Q258 439 259 430T260 410Q260 402 260 395T259 381Q259 362 259 344T260 307V280Q260 272 260 266T261 252Q261 240 261 228T260 202Q260 190 261 179T263 157Q263 125 262 95T262 33Q260 30 258 28T254 23Q252 18 251 13T245 4Q238 4 237 7T231
12Q221 10 212 9T191 4Q188 6 185 7T177 9Q169 10 169 14T166 19Q161 18 158 15T147 11Q144 11 140 15T134 24V35Q134 45 132 50Q135 72 135 97T135 145Q135 159 134 171T132 197Q131 211 132 226T133 256Q133 285 132 313T131 371Q131 382 132 393T134 418Q134
432 134 445T133 473Q133 504 136 537Q134 540 134 543T132 549Q129 548 128 546T125 540Q121 538 119 535T114 528Q106 524 100 520T86 512Q81 513 79 516T74 522Q66 525 59 530T43 538Q39 546 33 550T23 562Q15 564 8 570T0 585Q0 592 6 598T12 612Q27 633 43
652T73 692Q81 697 87 704T99 717Q103 718 105 720T112 725Q123 724 127 726T136 730Q136 735 137 739T140 749Q155 751 158 745Z" />
<glyph unicode="2" glyph-name="two" horiz-adv-x="457" d="M410 497Q413 495 414 492T417 486Q411 463 396 432T362 369T323 307T288 259Q272 239 260 218T231 175Q231 172 229 170T227 163Q219 148 211 141T205 122Q201 120 200 116T199 109Q208 105 217 104T237
103Q252 108 265 107T289 105Q301 105 313 106T338 108Q340 108 343 106T349 104Q356 105 360 106T369 109Q378 111 386 111T404 113Q409 109 413 105T421 95Q422 91 423 88T426 80Q425 72 424 61T417 44Q416 33 413 24T407 3Q404 -2 400 -3T391 -7Q381 -7 372
-8T351 -10Q346 -10 342 -9T333 -7Q326 -5 319 -6T303 -7Q293 -7 286 -4Q251 -6 223 -3T165 0Q153 -1 146 0T133 1Q119 1 106 0T79 -2Q70 -2 60 -3T40 -6Q34 -2 27 0T20 11Q20 17 22 24T24 37Q24 40 23 42T22 48Q24 53 23 59T22 71Q24 85 22 85T20 87Q20 89 23
93T27 100Q26 115 31 123T47 132Q52 137 59 143T69 157Q78 176 86 187T102 211Q113 225 120 241T138 272Q145 283 153 292T170 313Q194 350 221 386T269 462Q263 473 254 481T236 500Q220 519 202 537T166 571Q157 580 148 589T130 606Q125 611 122 616T113 627Q102
638 91 649T70 673Q69 680 64 685T59 694Q64 706 68 708T73 714Q75 719 77 724T82 734Q85 737 86 742T91 751Q93 756 94 760T102 764Q107 772 112 784T125 799Q130 795 134 792T143 787Q153 779 164 768T188 744T210 719T230 696Q238 688 247 681T264 666Q272 658
278 650T293 634Q296 632 299 630T305 624Q317 609 330 596Q333 593 336 590T343 584Q345 582 351 576T363 562T375 548T383 539Q388 532 391 524T398 508Q400 503 399 499T410 497Z" />
<glyph unicode="3" glyph-name="three" horiz-adv-x="423" d="M361 532Q365 530 368 529T374 526Q374 522 374 520T375 515L368 504Q362 501 348 489T318 463T288 436T269 418Q263 411 255 406T243 392Q248 384 254 381T269 372Q282 362 294 351T318 330Q332 319
344 309T370 289Q372 284 375 280T377 271Q379 266 382 263T385 254Q389 251 391 246T397 236Q395 231 393 228T389 220Q381 215 375 208T359 196Q356 188 350 184T339 175L324 157Q317 150 311 145T300 133Q292 125 285 120T270 103Q257 91 250 84T237 69Q227
60 221 55T210 41Q201 32 195 27T183 14Q175 9 171 3Q158 -9 149 -16T129 -28Q117 -26 111 -17T94 -3Q92 0 90 5T85 13Q74 20 73 22T70 26Q66 35 63 35T57 37Q56 38 54 42T50 49Q58 66 66 75T89 96Q107 111 125 131T161 169Q178 188 196 205T232 241Q224 249 217
256T200 268Q196 273 184 283T157 305T129 325T111 337Q106 344 100 347T88 357Q88 361 86 364T83 372Q88 385 85 386T82 393Q82 398 87 404T93 418Q101 426 109 431T126 444Q130 449 133 453T140 461Q151 467 158 469Q172 485 187 498T217 528Q215 536 209 540T197
550Q190 555 185 560T174 570Q160 580 141 595T102 627T66 660T41 691Q41 695 42 698T44 705Q55 717 58 722T63 733Q71 737 75 744T90 753Q92 756 92 759T92 765Q95 768 98 772T105 778Q112 777 117 775T128 771Q137 760 149 751T172 733Q176 729 179 726T186 719Q206
701 229 686T272 649Q292 630 314 613T354 574Q355 568 357 563T362 550Q362 541 365 539L361 532Z" />
<glyph unicode="4" glyph-name="four" horiz-adv-x="526" d="M402 620Q402 618 403 618T406 617T409 616T410 610Q410 605 412 597Q410 573 408 550T402 503Q401 492 400 481T398 459Q398 442 399 426T400 392Q400 386 398 378Q397 370 397 362T396 346L406 336Q423
335 440 337T475 340Q480 340 485 340T496 339Q499 335 500 331T506 322Q503 315 503 309T503 296Q501 291 500 290T499 283Q484 252 484 231Q481 226 477 222T468 213Q465 213 462 213T456 212Q453 212 449 212T443 215Q432 211 419 211T397 206Q397 194 397 182T396
159Q396 139 398 121T400 83Q400 65 400 45T393 6Q391 4 384 1T374 -2Q363 -1 362 -3T359 -9Q346 -11 346 -9T341 -6Q336 -6 336 -8T331 -13Q319 -20 305 -20L294 -27Q286 -31 285 -25T279 -17Q280 -9 276 1Q274 3 272 6T269 11Q269 41 272 73Q272 78 273 83T274
93Q274 100 273 108T271 124Q270 142 270 160T267 197Q245 196 229 197T196 196Q192 195 189 194T182 191Q170 189 157 189T132 184Q127 182 123 180T113 176Q85 171 60 171Q49 179 47 179T42 182Q36 193 36 197T31 204Q16 203 11 207T0 216Q2 225 9 232T18 249Q21
251 23 252T27 256Q35 265 41 276T54 298Q60 306 67 314T80 331Q89 344 97 358T116 386Q138 420 160 454T202 523Q212 541 223 558T245 592Q250 599 253 606T262 621Q266 626 270 630T278 640Q287 652 294 664T309 689Q314 695 318 701T327 714Q329 717 331 720T335
728Q344 737 344 738T345 741Q348 745 352 748T361 755Q369 755 372 756T381 758Q394 758 402 745Q404 741 404 737T408 728Q407 706 410 688T422 655Q421 651 420 649T420 641Q415 636 410 632T402 620ZM290 453Q276 445 267 432T251 402Q247 401 245 399T238
394Q232 385 223 374T206 350T191 326T183 304Q206 306 232 307T281 316Q283 350 285 384T290 453Z" />
<glyph unicode="5" glyph-name="five" horiz-adv-x="517" d="M454 726Q453 710 455 700T458 680Q459 661 462 653T468 635Q465 630 462 625T454 614Q432 612 411 611T368 610Q338 610 308 613Q301 614 295 615T281 616Q270 616 259 615T237 613Q224 613 213 613T188
614Q187 608 187 602T186 590Q186 579 186 569T187 548Q187 528 187 508T186 467Q190 465 194 465T202 464Q207 464 212 464T223 465Q256 465 289 462T356 458Q377 458 398 460T440 463Q448 463 454 460T467 454Q469 447 472 442T476 430Q476 427 474 425T470 420T466
413T464 399Q463 387 466 385T469 377Q469 374 465 364T454 342T443 319T435 304Q419 266 402 230T369 155Q363 140 356 126T340 97Q326 73 313 48T286 -3Q284 -6 281 -12T275 -24T269 -37T265 -47Q262 -50 259 -56T252 -69T244 -79T232 -84Q230 -80 230 -77T231
-69Q228 -61 222 -61Q216 -61 210 -63T198 -65Q194 -63 192 -59T185 -53Q180 -54 178 -51T170 -45Q171 -42 171 -39T173 -33Q159 -34 153 -28T146 -14Q146 -9 149 -6T155 2Q164 31 180 59T212 113Q221 127 228 140Q236 155 243 170T255 203Q259 214 267 229T283
259T298 290T307 317Q303 321 299 321T291 321Q277 321 265 321T240 322Q235 322 231 323T222 324Q213 324 203 324T183 323Q180 323 178 323T172 322Q167 322 163 323T153 325Q138 328 130 329T114 334Q109 341 98 347Q94 336 92 335Q82 337 79 336T70 334Q60
343 58 347T51 361Q53 382 55 402T57 443Q58 448 58 453T59 463Q59 474 59 484T57 506Q62 529 61 552T60 598Q60 606 60 613T61 629Q62 654 62 669T66 700Q67 708 68 716T70 732Q86 734 89 733Q95 735 98 740T110 748Q128 750 144 747T178 744Q184 741 191 741Q198
741 204 742T216 742Q226 744 231 744Q244 744 255 742T281 739Q314 739 347 742T415 746Q418 746 421 743T430 741Q436 738 441 734T454 726Z" />
<glyph unicode="6" glyph-name="six" horiz-adv-x="573" d="M290 773Q292 770 292 767T292 759Q306 764 316 762T331 755Q344 753 349 752T356 746Q360 745 364 745T372 743Q375 737 375 730Q375 723 366 701T344 647T314 581T282 513T255 456T239 421Q242 416
249 416T262 411Q272 409 281 407T300 404Q305 404 313 402T332 397T351 391T366 386Q371 384 376 382T386 377Q394 375 402 375T419 372Q438 368 456 364T495 356Q509 342 517 335T538 325Q543 310 541 302T538 284Q532 275 526 258T515 229Q512 221 509 214T501
198Q486 167 473 136T445 73Q438 56 437 48T429 32Q427 24 422 13T410 -11T396 -34T385 -53Q374 -54 370 -53T359 -51Q350 -45 348 -43T341 -40Q342 -32 339 -29Q318 -29 309 -22T288 -13Q288 -10 289 -8T290 -2Q290 0 288 3T285 8Q269 19 254 32T224 55Q211 64
197 71T168 85L157 91Q152 94 143 99T124 110T107 121T97 128Q89 131 83 136T69 144Q53 156 46 165Q38 165 33 169T20 173Q12 180 11 183T7 188Q0 196 2 203T8 220T15 236T20 245Q38 297 62 345T112 441Q138 489 160 537T205 636Q219 670 235 702T263 769Q268 770
270 773T275 780Q282 779 290 773ZM259 298Q250 302 240 304T221 311Q213 311 207 312T193 315Q179 296 171 277T154 239Q155 236 161 232T174 223T188 215T198 210Q200 207 203 205T208 200Q221 194 228 188T242 175T253 163T266 152Q270 148 275 146T284 141Q295
135 305 128T328 115Q332 124 336 133T345 152Q347 157 348 161T352 171Q355 177 361 190T373 217T383 245T388 264Q356 273 325 284T259 298Z" />
<glyph unicode="7" glyph-name="seven" horiz-adv-x="505" d="M447 720Q447 715 446 712T444 703Q446 694 445 694T444 689Q453 684 454 685T458 686Q469 686 469 673Q469 668 469 663T469 652Q461 631 454 610T437 567Q431 550 428 533T420 499Q406 448 390 398T358
297Q353 277 347 258T335 218Q328 189 319 160T301 100Q296 80 292 60T282 19Q280 10 277 1T267 -17Q260 -15 252 -15T238 -11L219 -15Q218 -12 218 -9T214 -4Q210 -4 208 -5T203 -8Q195 -5 187 -6Q173 -1 170 -1Q163 -1 157 2Q157 17 159 25T161 41Q170 85 177
120T195 190Q200 207 205 222T215 253Q220 268 223 284T232 316Q235 327 239 337T248 357Q251 366 253 375T259 393Q263 405 266 416T274 438Q278 451 282 462T288 486Q291 488 291 492T294 498Q300 526 307 552T319 606Q314 608 304 609T287 611Q273 611 260 611T233
610Q205 610 177 611T119 612Q113 612 107 611T94 610Q91 610 84 610T70 612T57 614T48 617Q43 620 43 627T44 639Q38 653 35 667Q35 678 34 683T32 695Q31 713 31 721Q31 726 33 734Q39 735 46 735T59 738Q67 743 68 742T71 741Q88 741 102 742T130 744Q155 744
179 744T228 743Q238 743 246 744T264 745Q277 745 288 744T312 742Q320 742 326 742T340 744Q351 744 361 744T382 743H394Q400 743 403 743T411 744Q418 744 422 741T433 735Q436 730 439 726T447 720Z" />
<glyph unicode="8" glyph-name="eight" horiz-adv-x="590" d="M315 663Q312 661 309 660T303 657Q259 656 214 645Q225 609 246 576T284 508Q290 493 293 488T301 476Q304 480 305 484T310 493Q311 498 315 509T322 526Q333 555 345 584T371 643Q381 669 392 698T417
752Q420 758 429 765T444 777Q449 775 452 772T460 766Q468 767 473 762T488 761Q495 758 498 752Q513 743 525 740T542 730Q543 727 542 724T543 716Q541 711 541 706T539 695Q536 685 528 672T515 648Q513 645 511 642T507 635Q501 619 494 604T478 573Q474 566
470 560T463 545Q461 540 460 535T456 524Q451 515 446 506T437 486L431 468Q427 460 419 444T406 419Q404 415 401 411T396 402Q390 389 386 381T379 364Q386 347 395 331T414 299Q424 284 432 268T450 236Q469 204 485 171T521 109Q541 96 546 82T561 55Q561
46 565 39T569 25Q569 19 567 13Q558 9 554 6T543 -6Q539 -8 537 -9T529 -12Q523 -11 520 -8T512 1Q501 1 499 -3T490 -11Q482 -12 474 -13T456 -14Q443 -14 431 -13T408 -12Q387 -12 367 -15T327 -18Q322 -18 317 -17T308 -16Q300 -16 292 -16T274 -17Q267 -15
260 -15T245 -16Q237 -16 231 -15T218 -12Q212 -11 206 -11T193 -11Q185 -11 175 -16Q170 -15 166 -13T156 -7Q148 -8 142 -8T130 -10Q113 -7 106 -10Q94 -11 94 -6Q88 -6 86 -4T81 0Q77 1 73 1T63 1Q63 14 66 22T72 40Q71 54 78 67T94 97T112 127T125 147Q134
161 140 176T157 206Q160 215 161 216T164 220Q167 226 169 233T174 246Q180 258 186 270T198 295Q200 300 202 306T206 318Q207 320 210 326T217 339T224 352T229 360Q225 374 218 385T204 409Q198 420 190 432T176 456Q172 466 164 481T147 511T128 539T111 560Q106
569 101 578T91 595Q86 603 81 611T70 629Q60 646 49 662T29 695Q27 708 25 712T20 720Q24 740 45 738Q53 743 57 747T73 750Q78 752 90 756T109 761Q125 762 131 762Q138 762 144 759Q158 763 172 765T200 770Q206 771 220 771T250 773T279 775T296 780Q302 779
307 779Q318 779 326 774Q329 769 331 765T338 755Q336 745 335 734T329 715Q329 704 326 698T324 685Q322 680 320 674T315 663ZM308 251Q298 242 294 235T288 217Q277 202 270 186T255 153Q253 146 251 140T246 128Q243 120 239 115T232 100Q237 96 244 96T257
94Q260 94 263 94T271 95Q290 95 308 93T345 91Q369 91 393 97Q391 102 380 125T354 174T326 222T310 250L308 251Z" />
<glyph unicode="9" glyph-name="nine" horiz-adv-x="573" d="M284 -48Q282 -45 282 -41T282 -34Q267 -39 257 -37T243 -30Q229 -28 224 -27T217 -20Q209 -20 202 -17Q199 -13 199 -5Q199 2 208 24T230 78T260 145T292 213T318 270T335 305Q332 310 324 310T311
315Q301 316 293 318T273 321Q268 321 260 323T241 328T222 334T208 340Q203 342 198 344T186 348Q179 350 171 351T155 354Q135 357 117 361T79 369Q64 383 56 390T36 400Q31 416 33 424T36 441Q41 450 47 468T57 497Q61 505 65 512T73 528Q87 559 100 590T128
653Q135 670 136 678T143 693Q145 701 150 712T163 736T176 759T188 778Q199 780 203 778T213 776Q223 770 225 768T231 765Q231 757 234 754Q255 755 264 748T286 738Q286 735 285 733T283 727Q304 707 319 693T349 671Q374 655 406 640L417 634Q421 631 430 626T448
616T466 605T476 598Q484 595 490 590T504 581Q520 570 527 561Q535 560 540 556T552 553Q563 543 566 537Q573 528 571 521T565 506T558 490T553 481Q535 429 512 381T462 285Q436 237 413 189T369 89Q353 56 338 24T309 -44Q305 -45 303 -48T298 -54Q290 -52
284 -48ZM314 428Q324 423 333 421T352 415Q360 415 367 414T381 411Q394 430 402 449T419 487Q418 490 412 494T399 502T386 510T376 515Q374 518 371 520T366 526Q353 532 346 538T332 550T321 562T307 574Q303 577 299 579T290 584Q278 591 267 598T245 611Q242
602 237 593T228 574Q226 569 225 565T221 555Q218 549 212 536T200 508T190 480T185 462Q217 452 248 441T314 428Z" />
<glyph unicode=":" glyph-name="colon" horiz-adv-x="261" d="M144 524Q146 522 147 518T154 514Q159 508 163 503T172 493Q177 480 189 467T207 449Q209 436 209 434T208 428Q197 419 187 409T167 389Q163 388 160 386T155 381Q147 381 143 378T132 373Q129 373
127 374T121 377Q119 384 114 387T103 394Q93 402 90 408T81 419Q81 423 79 425T74 431Q71 432 69 433T61 436Q59 440 58 444T53 452Q55 457 57 460T61 470Q72 477 77 483T89 494Q93 501 99 504T108 516Q112 518 118 518T126 524Q134 525 137 524T144 524ZM143
138Q154 139 158 132T168 122Q177 110 180 107T183 95Q193 92 201 84Q204 78 204 71Q204 68 204 65T203 58Q198 53 193 49T184 38Q172 30 163 22T140 5Q134 1 129 -3T116 -10Q116 -6 113 -5T108 -1Q108 11 93 16Q90 25 84 31T73 46Q73 52 71 55T67 61Q56 61 54
68T51 83Q53 91 56 94T61 102Q72 112 87 126T114 147Q116 149 121 149T129 150H140Q142 145 143 144T143 138Z" />
<glyph unicode=";" glyph-name="semicolon" horiz-adv-x="250" d="M128 529Q138 521 144 516T154 502Q165 494 171 487T186 473Q187 453 183 445Q172 440 164 432T145 417Q141 414 137 412T128 408Q123 404 119 400T108 393Q106 397 103 399T96 407Q94 417 91
419T83 424Q81 436 71 440Q71 448 69 454T61 468Q52 468 47 479Q47 485 48 489T49 497Q61 508 72 517T97 536Q105 543 109 543Q114 543 124 539L128 529ZM130 131Q131 121 137 118T152 117Q157 106 160 105T167 101L178 95Q185 91 185 87T188 80Q187 73 184 67T180
52Q173 41 168 31T157 9Q155 4 153 -2T146 -13Q144 -16 142 -19T137 -27L119 -57Q111 -56 110 -60T104 -65Q100 -70 97 -73T89 -81Q86 -79 84 -77T78 -72Q76 -60 73 -59T66 -58T59 -55T51 -45Q45 -29 43 -26Q40 -28 40 -32T38 -37Q36 -32 34 -29T31 -22L38 -12Q39
-7 38 -1Q59 29 76 61T108 126Q113 128 116 130T124 132L130 131Z" />
<glyph unicode="&lt;" glyph-name="less" horiz-adv-x="503" d="M472 178L459 172Q457 169 456 167T452 162Q444 162 435 156T420 144Q414 142 407 141T394 137Q377 144 357 151T321 169Q298 183 276 196T230 221Q220 226 215 230T203 240Q200 242 198 243T191
247Q182 255 174 259T155 269Q147 272 141 277T126 285Q115 296 101 300T72 305Q58 302 55 302T46 304L45 317Q41 327 41 329T42 334Q46 341 46 350Q46 360 42 369Q50 380 52 383T57 391Q59 393 61 395T66 399Q83 403 98 411T131 424Q154 435 165 440T189 453Q199
458 208 461T226 469Q236 474 244 477T262 485Q279 493 293 500T323 515Q329 518 333 521T342 528Q361 537 378 545T410 565Q415 566 418 566T426 566Q431 562 433 558T440 549Q443 536 451 526Q451 520 456 511T466 496Q468 488 471 483T474 470Q471 467 467 461Q460
458 454 456T441 449Q429 445 417 437T389 425Q380 419 376 419Q365 413 354 410Q341 402 328 396T301 385Q281 377 265 368T229 349Q237 344 251 334T274 321Q281 313 292 307T316 294T341 282T362 270Q369 267 379 260T397 253Q403 252 407 251T414 249Q425 244
435 239T456 229Q461 221 468 218T480 207Q480 202 480 197T482 185Q480 183 478 181T472 178Z" />
<glyph unicode="=" glyph-name="equal" horiz-adv-x="483" d="M201 385Q189 385 176 384T152 381Q132 379 114 378T76 376Q53 376 36 380Q36 389 38 394Q35 402 35 409T31 424Q33 431 34 437T37 451Q31 459 31 464Q41 471 45 473Q52 474 58 474T72 474Q89 475
105 476T137 479Q151 480 163 480T187 483Q201 484 205 484T214 485H225Q234 485 242 486T259 488Q302 488 346 485T433 480Q450 473 449 468T453 458Q448 441 449 420T444 385Q428 382 422 383T408 384Q387 384 364 384T321 387Q302 386 293 386T273 387Q260 387
248 386T221 385H201ZM441 294Q440 289 440 286T436 279Q438 272 437 267T435 255Q435 250 437 244Q435 241 434 238T432 231Q433 223 430 220Q397 221 364 221T297 222Q289 222 281 223T264 224Q256 224 250 223T236 221Q227 221 219 222T203 224Q190 224 178
223T153 222Q136 222 120 221T87 220Q81 220 75 221T61 222Q57 222 53 222T45 223Q44 230 45 233T47 239Q45 244 44 249T40 260Q42 267 42 274T45 288Q41 301 41 304T42 312Q47 314 51 315T59 318Q75 320 90 321T122 323Q133 324 145 325T170 326Q180 326 190 325T211
323Q222 323 234 323T257 324Q279 324 299 323T342 322Q365 322 386 322T430 319Q433 316 435 313T438 305Q438 301 438 299T441 294Z" />
<glyph unicode="&gt;" glyph-name="greater" horiz-adv-x="513" d="M42 178Q38 179 36 181T31 185Q33 191 33 196T33 207Q39 214 45 217T57 229Q68 234 78 239T99 249Q109 251 113 254Q123 253 133 260T151 270Q160 276 172 282T196 294T220 306T239 321Q247 324
261 334T284 349Q266 359 249 368T212 385Q199 390 186 396T160 410Q154 412 149 414T139 419Q128 423 124 425Q110 429 98 437T73 449Q67 453 60 455T46 461Q39 477 42 482T47 496Q52 501 57 510T62 526Q70 536 73 549Q77 553 79 557T87 566Q91 566 95 566T103
565Q118 553 135 545T171 529Q176 525 180 522T189 515Q207 508 221 501T250 485Q260 480 269 477T287 469Q296 464 305 461T324 453Q336 446 347 441T373 430Q399 419 414 411T447 399Q449 397 451 395T456 391Q458 387 460 384T466 377Q469 364 468 360T467 350Q467
341 471 334Q472 323 471 321T468 317Q469 312 468 310T467 304Q463 303 460 303T451 302Q427 304 413 300T387 285Q378 283 372 278T358 269Q347 264 339 260T322 247Q318 244 310 240Q304 235 299 231T288 224Q260 209 238 196T194 169Q177 159 157 152T119 137Q113
139 107 140T93 144Q88 149 79 155T61 162Q58 164 54 172Q46 174 42 178Z" />
<glyph unicode="?" glyph-name="question" horiz-adv-x="449" d="M439 610Q443 594 441 589T437 578Q431 569 430 566T427 560Q425 557 423 555T419 549Q416 539 409 531T399 521Q397 516 394 513T388 505Q384 496 374 486Q368 474 358 464T342 440Q329 428 323
413Q315 406 313 398Q305 392 301 383T289 368Q284 357 277 348T264 329Q257 314 248 302Q250 286 250 267T250 230Q250 226 249 221T243 212Q231 213 230 212Q226 212 225 215T220 218Q216 218 213 216T208 213Q203 213 193 217Q185 213 176 213Q166 213 161 218Q158
218 157 216T148 214Q141 214 134 219Q129 240 130 259T128 298Q127 306 127 313Q127 320 126 326T125 338Q145 366 162 395T202 450Q219 470 235 491T269 532Q274 540 280 546T291 560Q289 565 282 573T270 585Q267 588 264 589T257 593Q248 601 247 601T243 603Q238
606 231 610T217 619T203 628T194 636Q184 634 182 635Q173 628 164 619T150 598Q141 594 136 584Q129 579 125 573T115 562Q107 554 103 552T93 540Q89 537 85 534T79 525Q74 522 68 517T55 512Q49 526 39 526Q32 532 33 536T30 540Q23 542 22 546T14 550Q-1 556
-10 568Q-6 575 -5 582Q1 585 3 593Q9 598 18 610T38 635T57 661T70 681Q84 695 98 710T129 736Q131 739 138 743T153 752T168 761T180 767Q194 764 198 765T207 766Q215 766 219 765Q232 769 236 765T249 761Q257 755 262 748T274 733Q287 721 302 712T331 690Q335
687 338 684T344 676Q350 671 356 667T369 657Q380 648 391 639T413 618Q426 610 439 610ZM215 137Q219 132 226 120T241 94T254 68T260 50Q260 46 260 43T261 35Q259 30 255 28T245 22Q237 23 235 20T231 12Q219 10 218 12T214 14Q210 14 206 10T198 4Q195 4 192
4T185 5Q176 -3 172 -5T162 -8Q157 -3 150 8T140 23Q132 40 125 58T109 93Q110 101 116 104T128 108Q134 110 136 115T144 120Q151 125 159 126T173 133Q185 130 192 133T203 138L215 137Z" />
<glyph unicode="@" glyph-name="at" horiz-adv-x="600" d="M582 370Q586 362 587 354T590 338Q587 335 577 322T556 295T536 268T527 255Q521 250 513 240T496 229Q491 229 489 231T483 237Q469 234 466 239T456 247Q445 259 440 266T429 280Q421 292 418 296T412
304Q410 301 409 298T403 292Q397 278 388 268T370 247Q359 231 350 215T328 182Q323 177 315 177Q307 175 306 172T302 166Q292 167 289 170T280 174Q271 184 262 193T245 212Q241 217 238 221T230 231Q225 236 222 241T215 251Q207 258 201 268T186 288Q180 295
173 305T160 328T148 351T142 372Q145 377 149 379T156 383Q159 395 162 398T166 406Q176 413 187 431T207 461Q221 479 235 496T263 531Q265 535 273 545T284 558Q289 566 293 566T306 566Q316 562 318 560Q326 548 329 545Q331 538 333 535T338 528Q342 514 349
508T362 498Q366 490 370 484T377 470Q376 466 376 463T376 457Q374 453 372 452T370 445Q363 441 359 434Q355 434 354 431T349 425Q344 419 340 414T331 409Q317 421 310 427T296 442Q291 436 282 422T267 402Q259 394 251 383T236 360Q247 343 263 320T293 282Q311
305 328 330T362 381Q368 389 373 396T384 411Q397 421 398 423T407 425Q421 422 427 418T439 408Q444 397 452 389T468 371Q473 363 477 357T487 344Q496 352 504 366Q498 374 491 382T478 399Q474 405 461 425T432 467T404 507T388 527Q386 534 382 539T375 549Q370
556 363 565T354 579Q354 580 348 591T333 614T318 638T308 652Q304 647 301 642T293 632Q280 618 266 597T242 559Q234 548 225 536T207 513Q199 502 190 492T171 470Q165 463 160 456T150 441Q136 424 121 404T93 365Q100 351 110 340T129 314Q132 309 136 302T146
286T157 271T165 260Q166 255 170 250T178 237T187 224T194 215Q214 186 232 156T273 100Q279 94 283 88T294 75Q302 80 307 90T321 109Q328 120 330 125T338 135Q350 147 359 160T379 184Q389 197 393 204T402 220Q410 225 417 234Q427 237 429 237T435 236Q437
234 438 231T444 228Q446 223 448 221T455 215Q455 210 458 209T463 203Q468 198 472 192T477 181Q465 162 458 151T442 128Q429 110 415 93T389 58Q384 50 380 43T369 29Q345 -1 328 -32Q323 -34 319 -38T309 -43Q302 -43 299 -36Q295 -35 287 -31Q276 -34 274
-32T271 -28Q245 -1 225 31Q209 50 197 65T173 97Q161 114 151 130T129 164Q121 179 112 189T97 211Q94 217 83 234T60 271T36 306T22 325Q16 339 8 345T0 362Q3 373 4 374T5 378Q9 384 11 390T17 401Q22 407 26 413T34 424Q39 432 45 440T57 456Q59 460 63 463T69
471Q76 479 78 483T86 493Q87 495 90 500T98 510T106 519T112 526Q116 534 121 539T131 552Q141 565 151 577T169 601Q188 633 206 659Q213 668 223 679T238 698Q242 705 243 705T246 707Q253 715 259 726Q257 730 256 733T253 740Q253 754 267 754Q272 758 275
762T284 766Q291 768 293 771T299 774Q309 781 311 780T315 779Q318 777 322 774T329 768Q341 755 350 737T371 705Q378 694 385 684T399 662Q403 655 407 649T415 636Q421 628 426 619T437 601Q441 593 447 584T460 568Q462 566 466 560T475 546T485 531T493 520Q498
512 504 505T515 489Q523 473 532 462T549 436Q556 426 563 418T577 399Q579 397 581 395T585 391Q589 383 589 380Q589 375 582 370Z" />
<glyph unicode="A" glyph-name="A" horiz-adv-x="556" d="M95 16Q92 14 89 12T83 8Q72 2 63 2T43 -9Q39 -4 37 -4T30 -4Q17 -4 15 3Q11 2 3 -2T-10 -8Q-1 5 2 12T5 25T6 37T11 56Q13 60 14 64T17 73Q22 88 25 107T37 140Q37 157 44 172T57 203Q59 209 62 215T68
227Q72 237 74 246T80 265Q88 294 96 322T111 380Q112 385 113 391T117 402Q122 417 123 432T133 462Q132 469 133 475T137 488T141 501T144 510Q149 523 151 533T162 556Q162 556 165 566T172 590T179 614T182 628Q184 636 185 643T189 658Q191 663 193 666T197
675Q200 686 203 702T211 727Q214 734 222 738T237 748Q255 746 263 750T280 760Q285 759 289 758T299 756Q318 735 325 713T340 669Q343 658 346 648T353 627Q354 624 356 621T360 613Q365 605 368 596T375 578Q381 571 384 562T389 543T395 525T404 510Q406 499
411 489T418 466Q424 458 432 436T448 387T463 337T473 303Q475 295 481 283T492 260Q496 249 500 237T508 214Q510 203 512 193T518 172Q520 165 524 160T530 146Q534 138 535 131T542 116Q541 105 543 102T547 95Q551 74 556 62T561 35Q561 23 557 20T545 10Q537
3 532 -1T515 -5Q503 -4 501 -8T497 -15Q485 -14 482 -14T475 -15T468 -16T460 -23Q453 -15 447 -9T435 6Q435 23 431 46T421 82Q411 108 403 133T386 184Q383 195 380 204T372 223Q374 215 374 207T368 190Q366 188 362 185T358 180Q346 170 337 161Q338 143 332
136T319 123Q302 122 298 125T287 129Q283 130 279 130T271 129Q263 129 256 133Q253 135 252 137T248 141Q240 149 230 154T209 164Q201 171 193 178T175 191Q167 172 163 158T152 129Q141 95 134 70T118 18Q114 17 111 15T102 13L95 16ZM193 229Q201 243 207
244T219 252Q221 254 223 257T229 263Q232 265 236 267T243 272Q251 279 256 284T273 289Q290 289 301 281T328 269Q330 263 341 261T358 254Q348 279 343 304T329 355Q323 377 315 398T299 440Q292 460 287 479T274 516Q266 498 258 472T246 426Q246 417 245 412Q243
405 241 400T237 388Q224 349 214 309T189 229H193Z" />
<glyph unicode="B" glyph-name="B" horiz-adv-x="510" d="M455 563Q455 552 459 545T464 531Q462 521 468 508T474 480Q472 474 459 465T429 444T397 423T375 406Q380 398 387 393T402 383Q408 378 419 369T443 348T466 327T480 312Q482 311 483 305T486 292T487
277T488 268Q487 257 488 252T491 242T494 231T495 226Q495 220 490 215T479 206Q474 202 470 198T460 189Q454 184 447 180T433 170Q429 168 426 165T420 159Q411 151 400 144T379 130Q368 123 358 116T337 100Q322 91 308 83T279 65Q272 60 266 55T252 46Q232
35 212 23T173 -3Q157 -7 150 -9T136 -12Q130 -12 129 -8T123 -3Q108 -5 107 -4T102 0Q87 -2 77 0Q74 5 73 12T67 25Q69 35 68 44T68 62Q65 74 65 84Q65 97 68 111Q65 120 65 129Q65 137 66 145T67 161Q67 171 63 179Q63 197 63 214T62 250Q62 258 62 266T63 283Q62
288 62 298Q62 304 64 308T66 318Q66 329 65 339T63 360Q63 370 64 379T66 398Q63 402 62 407T61 417Q61 421 63 429Q63 437 62 446T61 463Q61 467 61 470T63 477Q61 484 61 491T61 505Q61 514 62 523T63 542Q62 557 63 565T66 583V640Q66 648 64 657T62 676Q62
681 63 691T66 706Q80 727 99 730Q103 732 105 735T114 739Q126 749 130 754T140 765Q143 765 145 766T152 768Q159 766 163 764T173 761Q193 746 212 732T252 701Q261 693 269 685T287 670Q292 667 298 664T309 657Q320 650 331 643T353 628L425 583Q433 578 440
573T455 563ZM312 520Q297 527 284 537T255 552Q247 560 238 563T221 572Q212 580 205 586T187 597Q182 566 180 537T177 477Q177 446 183 418Q194 423 204 429T224 441Q228 443 231 445T240 449Q245 453 250 457T260 464Q271 472 281 478T303 493Q308 497 314
499T326 507Q325 511 320 513T312 520ZM283 333Q280 333 277 334T270 336Q258 328 248 323T226 310Q221 307 216 303T206 297Q193 289 186 284T175 270Q177 242 177 214T176 157Q176 152 179 146Q188 147 211 159T259 188T308 219T343 241Q351 243 361 249T374
263Q355 285 330 299T283 333Z" />
<glyph unicode="C" glyph-name="C" horiz-adv-x="401" d="M225 273Q227 268 240 252T269 216T302 178T324 152Q343 124 363 97T401 41Q406 36 409 29T412 13Q412 4 408 4T398 1Q388 -6 380 -7T367 -8Q356 -8 343 -8T321 -9Q318 -10 314 -12T308 -15Q300 -15 297
-13T287 -8Q279 1 273 11T259 31Q253 38 246 43T233 57Q217 80 201 101T167 143Q159 154 150 164T132 184Q124 195 117 207T102 230Q96 240 85 254T62 284T38 312T16 333Q16 340 12 343T3 350Q1 355 -2 359T-5 370Q-5 374 -4 377T-2 383Q0 387 0 390T3 398Q8 411
17 421T32 444Q33 448 33 451T35 459Q38 465 44 471T55 484Q60 493 65 502T75 520Q89 543 106 564T138 607Q152 627 164 646T190 686Q197 696 206 708T224 733T244 755T264 771Q281 773 286 766T300 758Q314 755 319 749T329 738Q342 738 351 733T369 718Q365 707
359 698T347 679Q339 676 336 669T325 657Q314 640 303 624T281 592Q276 586 270 583T259 572Q257 569 256 566T253 559Q241 540 226 522T200 484Q195 477 192 470T185 455Q181 449 174 438T159 416T146 394T140 376Q141 371 153 356T179 324T207 292T225 273Z"
/>
<glyph unicode="D" glyph-name="D" horiz-adv-x="510" d="M65 -12Q61 -8 61 -1Q61 4 61 7T63 16Q68 39 68 62T70 109Q71 123 71 137T72 165Q72 248 67 330T62 497Q62 555 64 613T67 731Q76 736 89 735T110 744Q115 745 120 745T130 744Q141 744 151 751T173 763Q179
761 181 761T187 762Q190 762 200 755T222 739T244 722T258 712Q283 693 302 671T341 625Q359 602 380 579T421 535Q428 527 435 521T450 507Q453 503 455 499T461 489Q467 482 475 477T490 465Q495 461 505 449T515 431Q515 427 513 424T509 417Q508 414 508 408T507
400Q497 392 496 390T493 386Q490 382 486 380T479 372Q477 369 477 366T476 359Q471 348 460 338T441 316Q430 298 419 280T394 245Q388 237 382 230T369 214Q364 208 360 202T351 187Q340 173 330 160T309 132Q297 115 283 99T258 65Q247 47 235 32T209 3Q205
0 199 -6T187 -12Q183 -12 181 -9T173 -6Q172 -6 167 -7T155 -9L137 -11Q121 -19 114 -19T100 -19Q96 -20 94 -22T88 -24Q81 -24 77 -18T65 -12ZM365 420Q365 425 356 434T341 447Q334 453 325 458T309 471Q304 477 300 483T290 496Q272 516 254 536T221 580Q212
586 204 594T185 607Q183 601 183 595T184 582Q184 559 182 537T180 493Q180 439 182 387T185 281Q185 261 185 241T189 201Q187 195 187 190Q187 185 189 177Q197 182 202 189T213 204Q230 226 246 248T280 294Q291 309 302 323T325 354Q328 358 334 368T347 388T359
408T365 420Z" />
<glyph unicode="E" glyph-name="E" d="M407 140Q415 127 419 115T423 98Q423 91 421 87T414 77Q374 60 335 46T254 17Q244 14 235 11T214 5Q212 3 207 1T196 -3T183 -6T175 -8Q173 -3 171 -2T167 0Q162 0 161 -3T154 -9Q149 -9 145 -9T138 -8Q130 -10 124 -15T109
-22Q94 -18 91 -18T83 -20Q76 -14 76 -3T71 15Q71 28 69 29T67 33Q67 40 68 46T67 59Q71 76 70 92T71 124Q71 129 71 133T72 143Q72 158 74 161T76 170Q76 177 76 183T75 198Q75 212 75 225T76 254Q76 292 71 330T66 406Q66 452 61 497T56 588Q56 596 56 610T56
640T56 670T58 690Q58 691 64 693T72 695Q77 695 80 693T87 688Q105 690 108 691T114 693Q120 693 123 690T129 687Q146 691 147 688T154 685Q167 689 170 688T176 687Q181 687 187 690T198 696Q215 701 226 706Q241 715 248 718T264 725Q281 732 296 739T329 755Q332
755 335 755T341 758Q344 757 347 757T354 757Q364 753 367 752Q371 746 374 741T383 730Q388 721 391 721Q391 718 388 715T385 708Q393 694 398 682T403 665Q403 658 401 654T396 644Q358 626 320 609T241 574Q231 570 222 566T202 559Q200 557 193 556T182 554Q184
537 184 521T186 487Q187 473 189 458T194 427Q227 441 259 455T325 483Q331 482 337 481T350 478Q352 476 354 473T359 468Q358 463 365 453T373 438Q373 430 375 429T379 420Q380 410 379 409Q384 404 387 399T390 387Q376 370 362 365T334 353Q329 351 324 348T313
342Q305 339 298 337T282 330Q269 323 256 315T228 303Q217 300 214 297T202 287V260V210Q202 200 202 190T201 168Q199 158 199 151V135Q204 137 209 138T219 142Q223 143 226 143T234 145Q239 146 242 147T249 150Q264 158 272 160T288 166Q305 172 321 178T353
191Q363 189 367 194Q372 193 375 192T384 191Q396 180 399 174T407 163Q412 154 414 154Q414 152 411 148T407 140Z" />
<glyph unicode="F" glyph-name="F" horiz-adv-x="442" d="M390 722Q398 710 403 698T409 680Q409 673 407 669T401 658Q363 641 325 623T246 589Q236 585 227 581T207 573Q205 571 199 570T187 568Q189 548 189 527T191 485Q191 479 193 474T195 462Q197 443 197
425T199 388Q236 404 272 420T346 453Q352 452 359 451T372 447Q374 445 376 442T381 437Q381 432 387 423T394 402Q394 400 397 396T401 389Q401 379 400 378Q407 373 409 365T412 349Q394 329 377 322T341 307Q336 304 330 301T318 295Q310 292 303 290T287 283Q275
276 260 267T233 256Q225 254 220 254T207 248Q206 236 206 225T207 202Q207 190 206 179T204 155Q204 135 202 116T200 77Q200 65 201 54T202 31Q202 25 200 20T196 10Q182 8 179 10T172 15Q167 15 166 11T159 5Q155 6 151 6T143 7Q135 4 129 0T114 -6Q99 -4 96
-4T88 -6Q81 1 81 11T76 30Q76 40 74 42T72 47Q72 50 72 53T73 61Q73 70 72 75Q73 81 74 93T76 119T77 146T77 167Q77 172 79 175T81 184Q81 192 81 198T80 212Q80 226 80 240T81 268Q81 311 77 352T72 436Q72 459 70 486T65 537Q65 542 64 545T62 553Q61 565 61
577T61 603Q61 611 61 625T61 655T61 685T63 705Q63 706 69 708T77 711Q82 711 85 708T92 702Q96 705 100 705T110 705Q125 708 128 705T134 701Q137 701 139 704T144 707Q152 707 153 703T159 699Q163 699 165 702T169 705Q172 705 175 704T181 702Q186 702 192
705T203 711Q211 713 217 716T231 721Q246 730 253 732T269 739Q286 747 301 754T334 769Q343 769 346 773Q353 770 364 772Q376 761 379 755T388 744Q394 736 396 736Q396 733 393 729T390 722Z" />
<glyph unicode="G" glyph-name="G" horiz-adv-x="600" d="M581 383Q583 376 589 368T595 356Q587 337 583 327T570 308Q570 305 564 295T551 274T536 252T526 237Q521 229 518 222T511 207Q502 191 493 177T475 146Q470 141 466 135T457 124Q445 102 430 83T401
41Q412 30 412 13Q412 4 407 4T398 1Q388 -6 380 -7T367 -8Q356 -8 343 -8T321 -9Q318 -10 314 -12T308 -15Q300 -15 297 -13T287 -8Q279 1 273 11T259 31Q253 38 246 43T233 57Q217 80 201 101T167 143Q159 154 150 164T132 184Q124 195 117 207T102 230Q96 240
85 254T62 284T38 312T16 333Q16 340 12 343T3 350Q1 355 -2 359T-5 370Q-5 377 -2 383Q0 387 0 390T3 398Q8 411 17 421T32 444Q33 448 33 451T35 459Q38 466 44 471T55 484Q60 493 65 502T75 520Q89 543 106 564T138 607Q152 627 164 646T190 686Q197 696 206
708T224 733T244 755T264 771Q281 773 286 766T300 758Q314 755 319 749T329 738Q342 738 351 733T369 718Q365 707 359 698T347 679Q339 676 336 669T325 657Q314 640 303 624T281 592Q276 586 270 583T259 572Q257 569 256 566T253 559Q241 540 226 522T200 484Q195
477 192 470T185 455Q181 448 174 438T159 416T146 394T140 376Q141 371 153 356T180 324T208 292T225 273Q227 268 240 252T269 216T302 178T324 152L332 139Q334 140 342 153T360 182T376 212T386 230Q389 233 396 246T411 274T426 302T434 319H422Q406 319 391
318T359 311Q352 312 347 315T335 321Q332 331 332 335T332 341Q331 345 330 347T328 353Q328 360 326 364T322 375Q322 379 322 383T321 390Q323 408 318 416Q318 430 322 434T328 446Q337 443 343 447T357 452Q373 452 383 457Q392 458 401 458T420 460Q425 461
428 462T437 464Q443 465 450 465T463 465Q479 467 495 467T527 469Q532 467 536 466T545 463Q548 461 550 459T557 455Q562 450 564 445Q562 436 565 432Q560 427 560 419T558 403Q565 401 570 392T577 383H581Z" />
<glyph unicode="H" glyph-name="H" horiz-adv-x="595" d="M488 740Q500 743 505 743T515 741Q521 737 525 731Q525 710 525 690T524 648Q524 610 525 572T525 496Q527 487 526 486T525 483Q525 445 527 408T529 333V200Q529 157 531 115T534 31Q534 27 529 20Q527
12 523 7Q514 6 506 10Q502 10 501 8T496 3Q488 3 483 -1T471 -5Q465 -5 460 -4T447 -2Q445 -2 441 -5T435 -10Q430 -10 426 -11T417 -13Q412 -9 412 -1T406 9Q406 14 406 20T407 32Q407 71 405 110T402 189Q401 206 401 222T402 256Q402 265 402 274T400 291Q394
292 390 290T380 287Q359 280 352 273Q346 273 342 271T333 267Q325 265 318 264T302 259Q297 257 292 255T282 251Q271 247 260 244T238 236Q227 234 219 230T203 222Q196 175 196 133T198 48Q196 42 196 35T193 22Q182 19 179 21T171 26Q167 25 165 22T160 17Q152
17 148 14T139 8Q136 7 133 8T126 7Q116 7 116 9T114 12Q110 12 109 9T103 3Q99 1 94 1T84 -2Q79 3 79 9T74 20Q72 34 72 47T68 75Q70 103 70 120T69 155Q69 171 68 187T66 219Q64 248 63 278T61 338Q61 363 63 387T66 436Q66 453 66 469T67 503Q67 517 67 530T66
557Q66 572 68 586T70 615Q70 632 68 648T66 682Q66 687 67 691T68 701Q67 712 69 714T73 721Q78 722 84 724T95 724Q101 730 111 730T127 737Q134 736 136 736T141 737Q150 735 150 737T154 740Q159 740 169 740T184 735Q194 682 195 627T196 518Q196 504 197
490T196 461Q196 455 195 450T194 438Q194 421 192 403T190 367Q202 360 210 362T227 368Q237 371 245 374T263 381Q271 385 280 387T298 392Q324 401 349 414T400 435Q398 490 398 544T398 653Q398 668 398 684T400 715Q401 719 402 721T404 729Q407 734 411 736T417
742Q419 740 421 739T427 736Q435 738 436 739T440 741Q445 743 453 743T466 743H478L488 740Z" />
<glyph unicode="I" glyph-name="I" horiz-adv-x="402" d="M366 115Q364 109 364 104Q364 98 365 92T367 80Q365 62 364 58Q358 53 340 47T296 34T241 21T184 8T135 -2T101 -9Q96 -10 92 -11T82 -15Q77 -16 72 -16T62 -17Q59 -17 57 -14T52 -9Q52 -3 50 0T46 5T41
9T39 18Q37 26 34 30T30 39Q26 52 26 62Q26 67 27 70T30 76Q36 78 39 81T47 86Q53 89 64 91T88 97T113 103T133 109Q136 110 139 110T144 112Q142 128 142 144T139 175Q139 182 138 189T137 202L138 223Q138 261 135 299T132 375V409Q132 417 132 424T131 439Q131
458 131 475T132 512V604Q110 609 91 604T52 596Q45 603 44 611Q36 622 33 625T26 642Q19 656 15 659T10 671Q10 676 12 678T17 685Q26 689 27 690T31 693Q41 700 54 703T79 710Q89 713 98 717T118 724Q131 728 144 732T169 739Q177 741 184 741T200 745Q213 743
227 745T259 752T292 759T316 764Q321 762 323 759T329 755Q330 752 331 748T335 741Q335 730 340 725Q339 715 343 703T348 679Q343 664 332 660T307 653T280 648T259 642Q259 628 259 613T260 583Q260 569 260 555T259 527Q259 506 259 484T258 440Q258 409 259
378T262 316Q263 311 263 301Q263 261 264 223T270 143Q283 142 290 147Q295 147 299 149T308 153Q314 154 324 156T338 159Q347 158 349 159Q352 153 358 150Q360 141 361 133T366 115Z" />
<glyph unicode="J" glyph-name="J" horiz-adv-x="436" d="M368 5Q362 5 358 3T349 -2Q341 -7 341 -9T339 -12Q330 -12 322 -9T304 -6Q296 -2 289 2T275 14Q266 14 263 13T254 12Q241 17 230 26T205 41Q201 46 196 48T186 55Q177 59 160 70T123 93T86 118T62 137Q58
138 50 143T35 156T21 170T15 182Q15 187 20 190T27 199Q28 201 28 204T28 210Q33 218 33 222T35 231Q40 237 44 242T53 253Q52 264 57 269T68 279Q73 279 80 278T92 275Q102 270 102 269T104 265Q109 261 114 258T124 252Q135 244 146 236T170 220Q184 212 203
199T239 180Q241 186 241 196Q241 203 241 210T240 225Q240 236 238 247T234 268Q229 316 228 362Q227 376 226 389T225 416Q225 435 225 454T226 493Q226 510 227 527T228 561Q228 578 228 593T229 625Q229 650 229 680T231 735Q233 745 237 750Q255 749 266 749T291
748Q295 748 297 746T303 743Q307 743 309 744T316 746Q323 746 329 740Q340 743 346 741Q351 736 352 727T356 710Q356 701 356 696T357 686Q357 675 356 664T355 642Q355 629 356 616T358 590Q358 576 357 564T356 539Q356 529 356 520T357 502Q357 481 357 460T356
418Q356 413 356 406T356 393Q356 388 352 382Q354 349 355 316T359 250Q359 242 360 233T362 214Q364 203 364 192T365 170Q366 156 367 143T370 115Q371 104 373 93T375 71Q375 57 374 38T368 5Z" />
<glyph unicode="K" glyph-name="K" horiz-adv-x="547" d="M480 -2Q475 -14 459 -22Q452 -18 447 -13T433 -4Q427 8 424 10T417 14Q411 19 407 26T398 38Q396 39 391 44T379 56T368 67T362 73Q353 79 346 86Q344 89 342 92T337 98Q329 101 324 106T315 119T305
131T292 140Q285 150 275 156T258 172Q252 179 245 185T230 198Q226 204 217 215T201 228Q200 205 200 182T198 136Q198 124 198 111T198 85Q197 80 196 75T194 63Q194 51 193 48T190 41Q187 31 185 17T174 -6Q163 -7 157 -4Q155 -6 153 -8T147 -10Q145 -8 141
-7T134 -5Q129 -5 124 -7T113 -9Q108 -9 105 -7T96 -4Q93 -4 89 -7T81 -10Q76 -10 73 -9T65 -6Q65 -3 65 0T65 6L61 31Q62 38 63 45T66 58Q67 74 67 88T68 118Q68 144 68 169T68 220Q69 229 70 238T72 257Q72 283 75 308T80 359Q82 379 82 398T82 436Q82 473 81
509T80 582Q80 594 81 614T79 646Q80 675 79 703Q83 705 83 709T84 717V731Q93 741 99 741Q104 741 109 740T119 736Q132 739 136 737T145 733Q153 734 156 740Q167 738 167 735T169 729Q179 728 182 730T191 734Q200 732 203 729Q203 723 206 716T209 696Q209
687 208 679T207 662Q207 648 208 635T209 608Q209 604 209 601T208 593Q208 555 210 516T212 438Q212 436 211 433T212 427Q229 445 241 465T267 506Q279 521 291 542T313 580Q317 586 320 592T327 604Q329 609 332 613T338 624Q343 632 347 639T356 655Q361 663
366 669T377 683Q385 696 394 709T410 737Q420 742 428 748T445 760Q455 747 459 742T472 736Q474 733 474 729T478 723Q490 722 492 723Q495 718 500 716T511 711Q511 708 511 705T512 699Q524 694 524 680Q505 646 483 616T443 550Q438 539 432 529T421 508Q414
501 410 494T400 479Q396 474 392 469T384 458Q376 447 370 436T354 413Q348 403 340 393Q332 382 327 369T313 344Q305 332 305 327T299 308Q306 297 315 288T334 271Q342 260 352 252T374 233Q378 229 381 226T388 219Q399 207 414 196T444 175Q455 165 471 151T506
120T538 89T552 70Q547 55 541 52T531 41Q525 39 525 37T522 30Q515 25 510 19T500 6Q496 4 493 3T487 -3L480 -2Z" />
<glyph unicode="L" glyph-name="L" horiz-adv-x="449" d="M437 171Q444 162 445 157T449 146T452 135T454 129Q454 122 452 118T444 106Q404 91 365 77T285 48Q274 45 265 42T245 36Q243 34 239 33T228 29T217 26T209 24Q201 22 192 22T173 22Q168 21 166 17T162
9T154 1T140 -3Q131 -3 122 -2T103 3Q101 6 101 10T100 18Q91 19 86 17T76 13Q73 17 72 22T66 32Q65 37 65 42T65 52Q65 59 65 68T69 83Q72 140 72 197T72 312Q72 317 72 326T72 346T71 364T69 377Q70 384 70 390T70 404Q70 410 70 415T68 425Q69 429 69 436Q69
441 68 446T67 456Q67 464 67 471T68 487Q68 513 66 538T63 590Q63 624 63 658T61 726Q65 736 65 743Q79 750 87 748T103 746Q108 746 112 747T120 750Q125 749 128 748T137 746Q152 749 153 747T158 743Q162 744 164 746T171 749Q177 749 180 742T187 729Q187
718 191 709Q193 668 193 628T195 548Q196 530 197 511T199 473Q199 443 199 413T200 351Q200 346 200 342T201 333Q201 321 200 310T199 288V210Q199 200 199 190T199 169L203 157Q214 161 225 165T250 172Q258 174 265 176T280 180Q294 188 302 191T318 197Q335
203 351 209T384 222Q392 220 397 224Q407 222 415 222Q426 211 428 205T436 194Q434 189 436 188T440 183Q444 181 441 178T437 171Z" />
<glyph unicode="M" glyph-name="M" horiz-adv-x="786" d="M756 3Q751 -2 745 -3T733 -4Q718 -11 701 -11Q690 -5 689 -7T685 -11Q670 -18 658 -18T638 -24Q630 -18 630 -7T627 13Q622 20 620 30T617 52T615 73T609 92Q608 97 608 101T607 110Q608 127 606 137T602
158Q601 164 601 171T595 183Q598 197 596 204T593 217Q592 225 592 234T590 252Q584 300 577 348T564 444Q558 439 556 429T551 411Q545 393 540 374T530 337Q528 329 527 319T522 300Q512 271 505 250T490 207Q488 195 486 184T482 162Q481 156 479 145T475 129Q473
124 472 122T471 115Q461 100 458 82T445 47Q445 35 436 26Q431 25 427 24T417 20Q412 22 406 22T393 23Q388 24 384 26T375 30Q370 36 364 40T352 50Q346 65 341 70Q338 81 333 90T326 112Q323 123 319 132T309 153Q307 160 305 166T299 180Q298 188 294 200T287
221Q287 222 284 231T277 252T270 272T265 282Q263 287 262 291T258 302Q254 315 248 328T236 354Q231 364 229 373T224 392Q222 397 221 401T217 410Q215 416 213 422T209 436Q204 434 204 428T204 416Q202 405 202 395T201 373Q199 361 197 350T194 328Q194 301
191 274Q189 250 186 226T182 175Q182 156 178 138T176 99Q174 95 174 93T174 87Q174 82 174 76T173 65Q173 56 175 53Q172 44 172 34T172 13Q170 9 170 5T166 -3Q167 -20 156 -20Q153 -20 150 -19T144 -14Q133 -15 132 -9T125 -4Q113 -9 112 -7T105 -6Q97 2 95
1T90 0Q81 3 80 2T76 0Q71 5 63 5T48 6Q47 10 47 13T46 22Q46 28 46 33T47 45Q47 50 47 55T46 68Q46 75 47 81T48 96Q48 99 47 101T46 108Q52 121 52 128T52 143Q54 160 55 176T59 210Q59 238 60 256T65 294Q67 303 68 311T72 328Q74 343 74 359T77 392Q79 417
82 441T87 490Q89 509 91 527T94 563Q94 572 96 586T100 610Q102 634 103 657T105 703V714Q105 716 107 718T109 725Q109 734 113 737T121 749Q126 749 132 748T142 742Q149 744 156 744T168 749Q174 749 177 746T185 741Q189 743 193 744T201 748Q204 746 205
744T210 740Q225 744 230 741Q232 737 232 733T234 725Q244 715 247 703T258 680Q260 674 262 668T267 654L270 642Q274 632 280 618Q285 599 289 579T302 542Q303 536 305 528T310 513Q317 496 324 480T338 444Q344 425 348 405T360 366Q366 348 369 340T377 324Q377
321 378 314T383 300T389 286T395 278Q398 280 398 284T402 291Q403 302 405 318T413 344Q413 349 415 362T422 391T429 420T436 436Q438 449 439 452T443 457Q444 465 447 472T451 487Q453 504 456 515T464 542Q468 556 471 570T480 599Q492 637 501 666T525 724Q528
733 530 735T534 739Q542 742 550 742T568 741Q578 745 583 750Q587 745 595 745Q605 745 609 751Q613 749 615 750T623 749Q625 751 628 753T634 756Q642 746 646 741T653 728Q656 719 656 709T662 689Q661 676 663 650T669 594T677 539T684 508Q683 495 685 486T687
468Q687 465 688 456T690 436T692 416T695 402Q695 384 701 374Q706 349 709 324T716 273Q718 260 718 248T721 223Q722 218 723 213T726 203Q728 193 729 184T732 166Q733 161 735 156T735 144Q737 137 737 129T740 115Q740 94 743 78Q744 66 749 54Q751 42 752
29T756 3Z" />
<glyph unicode="N" glyph-name="N" horiz-adv-x="581" d="M487 751Q498 751 503 748Q508 738 509 731T511 713Q512 698 512 692T510 678Q509 662 509 648T509 617Q509 582 510 546T511 475Q511 461 511 448T510 420Q510 417 510 414T511 407Q511 398 511 390T510
373Q510 369 510 366T511 358Q509 350 509 347Q509 331 510 315T511 282Q511 267 511 253T512 224Q512 216 512 207T511 189Q511 168 512 147T514 104Q514 90 514 77T516 49Q516 33 515 26T511 11Q503 9 501 9T495 10Q481 6 477 3T468 -5Q464 -5 459 -5T450 -9Q445
-7 442 -8T436 -9Q422 -10 417 -12T403 -15Q395 -2 391 5T378 12Q365 32 360 54T341 94Q340 102 338 104T334 112Q330 120 327 129T319 146Q311 163 303 179T288 214Q285 222 283 230T278 247Q276 251 274 255T269 262Q263 273 258 284T245 306Q243 311 240 315T232
325Q229 332 227 339T221 353Q219 359 215 365T209 378Q207 383 206 388T200 397Q193 385 193 381Q192 369 192 362T191 348Q191 341 192 335T194 322Q196 298 197 274T198 225Q197 206 197 196T199 176Q200 166 200 156T200 135Q200 112 200 91T201 46V22Q201
11 198 2Q183 2 179 3T169 6Q163 5 160 2T151 -5Q140 -4 139 -5T135 -9Q132 -10 130 -9T124 -8Q116 -6 111 -6Q105 -8 100 -10T88 -13Q82 -2 81 13T73 39Q75 43 75 44T76 50Q76 73 75 96T74 142Q74 161 72 179T69 216Q69 222 70 228T71 241Q71 244 71 247T70 252Q68
270 68 289T67 327Q66 338 66 350T65 375Q65 380 66 386T67 398V440Q65 452 65 456T66 464Q66 473 65 481T63 500Q63 507 64 513T66 527Q66 542 65 556T63 585V670Q63 677 62 684T61 699Q67 713 72 713T81 717Q92 715 100 719Q113 718 116 722Q118 720 121 720T128
720Q131 722 133 724T139 728Q150 734 152 735T157 739Q162 739 163 736T170 733Q172 729 175 725T182 719Q190 702 201 690Q210 664 221 640T246 592Q246 589 247 585T249 578Q254 567 263 550T280 521Q282 517 285 514T290 507Q293 502 295 496T300 485Q305 473
311 462T325 438Q327 432 329 426T335 414Q343 396 349 387T359 366Q366 358 370 349T382 333Q383 338 384 362T385 416T385 471T385 506Q385 533 384 559T383 612Q383 633 383 654T385 697Q386 708 386 717T386 737Q387 742 390 747T395 757Q408 759 415 752Q421
755 429 755T444 756Q452 757 453 757T456 758Q460 756 463 755T472 752Q481 755 487 751Z" />
<glyph unicode="O" glyph-name="O" horiz-adv-x="546" d="M542 397Q540 393 538 390T535 382Q539 378 542 374T546 364Q546 360 545 357T544 350Q540 343 536 337T529 324Q525 320 523 316T518 308Q513 306 512 302T506 294Q505 290 496 275T476 243T455 210T441
189Q439 184 437 181T431 174Q429 171 428 168T425 162Q423 158 421 155T416 147Q406 134 396 116T377 84Q372 76 368 68T358 52Q353 44 348 37T338 22Q330 16 324 8T310 -7Q297 -7 294 5Q281 8 281 5T281 0Q277 -2 276 -6T270 -12Q262 -10 257 -6T241 -2Q237 4
232 8T223 18Q221 24 218 28T211 36Q208 41 205 45T199 53Q192 62 186 70T174 88Q166 100 159 112T143 137Q139 143 135 149T128 161Q126 166 123 173T114 182Q112 190 107 194T97 204Q90 212 84 221T72 241Q52 269 35 296T0 352Q5 368 5 376T10 389Q10 393 12
401Q25 423 37 441Q48 458 52 469T62 492Q67 495 70 499T78 508Q80 519 87 526T96 545Q105 552 106 561Q119 570 122 585Q130 593 135 603T146 624Q158 634 165 650Q171 654 174 661T182 673Q190 686 194 694T204 712Q211 712 213 717T221 721Q221 730 226 737Q228
738 232 739T236 743Q234 755 237 757T242 761Q253 759 257 758T270 751Q280 751 284 747T293 741Q297 737 299 733T307 727Q315 716 324 703T341 679Q352 664 363 651T385 621Q388 616 396 604T414 577T432 552T443 538Q446 533 456 519T477 490T500 460T515 442Q526
427 531 418T542 397ZM313 209Q324 224 330 236T342 260Q352 272 354 277T359 287Q367 299 375 311T389 337Q395 341 398 347T407 358Q401 379 393 390T377 413Q374 418 371 423T365 433Q361 436 359 439T353 445Q351 450 347 458Q343 463 339 467T332 477Q328
481 322 488T310 503T298 519T290 532Q288 537 287 540T283 548Q278 555 273 560T263 573Q260 571 258 571T253 568Q246 555 238 544T221 520Q214 508 207 496T193 471Q188 464 184 458T174 443Q169 436 166 429T157 414Q149 404 144 396T134 377Q137 371 143 361T157
340T169 320T176 308Q184 301 189 293T202 276Q206 268 211 262T221 249Q226 242 234 229T250 201T266 175T279 160Q289 171 295 184T313 209Z" />
<glyph unicode="P" glyph-name="P" horiz-adv-x="499" d="M142 727Q146 728 149 730T156 732Q159 731 160 728T165 723Q168 725 170 727T176 730Q186 727 187 720Q192 718 196 716T205 712Q207 708 210 706T217 700Q227 698 243 689T270 675Q280 670 290 665T309
654Q318 649 327 643T346 632Q355 621 369 618T394 607Q403 602 411 597T427 586Q430 581 434 578T443 570Q463 559 466 553Q469 551 475 547T487 539T498 530T504 521Q500 512 500 507T496 497Q502 489 502 482Q497 470 485 462Q482 454 476 450T467 437Q459 432
458 429T454 423Q435 403 419 389T388 357Q378 352 371 345T358 328Q350 320 343 313T327 298Q325 294 321 292T314 284Q303 279 296 270T279 255L272 245Q269 243 264 239T253 229T243 218T238 210Q235 209 229 204T216 193T204 181T197 173L187 166Q188 139 188
112T189 57V23L182 14Q177 14 174 16T167 18Q163 18 160 14T153 8Q146 7 142 5T132 0Q126 3 120 3Q107 0 107 2T103 4Q95 -4 93 -4Q89 -4 86 -5T78 -6Q74 2 72 10T62 27Q65 37 61 41Q67 52 66 66T65 92Q65 99 65 105T66 118Q66 130 64 142T62 168Q62 198 64 228T66
289Q66 306 65 324T63 359Q63 370 64 379T66 398Q66 444 67 486T69 571Q69 585 69 597T68 624Q68 631 69 638T70 652Q73 683 73 714L72 730Q76 736 84 736Q95 736 101 729Q108 730 114 731T127 733Q136 733 142 727ZM201 568Q201 563 200 561T198 556Q198 553 198
550T199 542Q199 519 199 497T198 452L196 399Q196 394 197 388T198 377Q198 372 197 367T196 357Q196 344 199 331Q204 333 206 337T211 345Q234 366 254 389T295 435Q313 454 326 466T346 495Q329 506 311 517T273 537Q272 539 268 542T258 547T248 552T241 554Q232
562 222 564Q215 564 210 566T203 571L201 568Z" />
<glyph unicode="Q" glyph-name="Q" horiz-adv-x="546" d="M287 736Q290 738 292 740T299 743Q304 741 309 738T319 733Q336 716 347 689Q352 678 361 669T377 648Q381 640 385 634T394 620Q410 598 424 572T454 523Q468 498 481 474T510 424Q510 419 514 413Q515
397 514 393Q518 386 524 382T536 373Q537 365 534 359T529 344Q516 322 501 299Q493 288 487 276T472 253Q467 242 464 237T459 226Q449 215 445 202T430 177Q432 165 445 152T468 130Q471 124 475 120T483 110Q485 108 487 106T493 102Q494 95 498 91T509 84Q513
73 516 71T520 65Q520 60 518 54Q512 47 505 40T490 27Q487 21 484 13T476 -4T466 -20T456 -29Q443 -22 443 -15Q440 -14 434 -8T427 1Q402 15 387 38Q384 40 382 41T376 44Q374 49 371 51T365 59Q362 61 357 54T347 38T337 21T332 10Q326 5 321 0T309 -11Q297
-20 293 -24T286 -36Q277 -40 275 -41T271 -42Q266 -42 260 -36T249 -26Q244 -25 239 -24T229 -18Q223 -7 221 0T210 11Q210 16 208 18T202 24Q194 35 188 50T173 78Q165 90 155 102T136 125Q133 129 130 133T123 141Q117 152 111 162T97 183Q95 186 93 188T88
195Q82 203 78 211T69 228Q61 245 51 259T32 290Q24 308 16 322T2 351Q2 354 2 357T0 364Q5 377 7 382T10 392Q12 395 14 398T18 407Q42 439 62 473T104 540Q127 574 146 608T188 676Q188 682 190 684T193 691Q198 696 202 703T208 717Q211 722 214 727T220 738Q224
741 226 745T232 753Q237 755 239 758T249 761Q252 761 254 761T260 761Q265 759 267 755T276 750Q278 745 281 743T287 736ZM339 476Q330 490 323 503T305 529Q304 532 301 538T293 551T283 562T275 567Q268 562 262 558Q258 546 251 534T237 511Q230 503 225
497T216 479Q211 474 208 470T200 460Q197 450 190 438T174 414T158 390T144 368Q137 359 137 355T135 347Q140 333 149 321T165 296Q173 282 179 269T196 245Q214 222 229 197T266 151Q273 157 275 166Q282 174 288 183T299 200Q303 210 309 220Q318 234 327 246T343
273Q349 281 353 289T365 305Q367 317 373 325T386 343Q388 350 391 355T397 366Q390 386 380 404T358 441Q355 448 352 455T345 467L339 476Z" />
<glyph unicode="R" glyph-name="R" horiz-adv-x="539" d="M499 482Q490 463 475 446T445 414Q434 403 426 390T408 366Q400 357 392 350T377 333Q372 329 368 325T359 315Q374 283 394 257T437 205Q448 192 459 181T478 156Q485 141 492 134T506 118Q512 108 516
101T529 86Q529 81 535 77T543 67Q543 62 543 59T544 54Q541 46 534 41T520 29Q510 29 503 23T484 17Q479 13 476 9T468 0Q460 0 454 -4T439 -11Q429 -5 423 4T407 19Q406 24 404 27T399 35Q382 54 367 75T337 117Q329 126 321 134T304 153Q299 159 294 167T283
182Q276 188 271 196T259 209Q250 204 243 196T227 182Q219 175 212 168T196 155Q194 132 194 111T194 68Q194 51 194 36T189 4Q184 3 180 9T170 17Q166 16 164 13T156 12Q151 7 141 3Q136 3 130 2T119 0Q111 0 108 2Q98 -5 92 -5T81 -6Q79 1 77 7T74 22Q71 26
70 31T66 41Q67 44 67 48T67 56Q67 73 66 89T67 122Q65 127 64 132T63 142Q63 145 63 149T66 155Q63 168 63 182T62 210Q62 217 63 224T65 240Q65 257 63 273T61 305Q62 316 62 322Q62 328 63 334T62 346Q63 351 64 353T66 361Q66 374 66 386T67 413Q67 423 67
432T68 453Q68 462 69 470T72 486Q73 495 73 503T73 520Q73 541 73 562T71 605Q70 610 69 616T68 628Q66 647 65 667T61 707Q63 710 63 713T63 720Q63 725 63 729T62 739Q64 741 66 743T70 748Q76 748 82 748T94 743Q99 745 105 747T117 750Q125 750 129 746Q134
748 134 750T142 753Q155 754 160 754T171 755Q174 753 176 750T180 744Q202 736 215 722T246 697Q250 694 254 692T262 688Q271 682 280 675T299 663Q309 658 310 658T313 655Q335 647 352 634T390 609Q397 605 407 601T428 593T448 583T463 572Q474 561 482 557T499
546L500 519Q500 512 499 506T497 493Q497 488 499 482ZM362 508Q351 514 340 519T321 535Q314 537 296 544T260 560T226 575T208 582Q205 581 205 569T205 543T205 516T205 500Q205 481 204 463T201 426Q199 423 198 421T196 415Q194 401 194 378T194 341Q194
334 194 328T195 314Q200 314 202 316T209 321Q222 335 235 348T262 375Q268 381 274 388T287 400Q292 406 296 411T305 422Q319 437 334 451T359 484Q366 489 372 500Q365 501 362 508Z" />
<glyph unicode="S" glyph-name="S" horiz-adv-x="359" d="M274 744Q281 731 281 714Q281 699 275 682T256 656Q247 636 239 624T222 599Q219 592 216 586T208 572Q205 567 195 552T175 521T156 489T148 470Q148 466 157 460T170 451Q175 446 179 441T189 431Q200
422 210 413T232 393Q253 374 276 357T317 317Q334 312 339 293T342 257Q344 254 345 251T349 244Q349 228 345 221T335 202Q330 192 329 182T322 164Q320 161 317 159T311 153Q307 146 305 137T298 119Q295 111 291 103T283 87Q281 82 280 75T270 65Q265 47 257
30T243 -5Q234 -8 221 -16T199 -25Q196 -25 194 -22T188 -17Q186 -16 183 -17T177 -18Q172 -18 170 -14T163 -8Q160 -9 157 -10T151 -11Q144 -11 143 -8T137 -1Q125 5 123 10T117 17Q124 43 136 66T159 114Q162 122 166 129T175 144Q178 151 184 162T195 185T204
207T208 225Q208 239 200 246Q171 270 146 295T92 346Q74 362 53 379Q49 382 47 388T41 399Q39 403 35 405T29 411Q26 415 25 420T19 429Q14 434 7 435T-5 441Q-2 444 -2 447T-3 454Q-3 461 3 464T9 475Q13 483 15 485Q26 512 40 537T69 587Q74 595 78 602T88 618Q91
625 93 630T101 641Q115 657 124 671T139 705Q140 710 143 719T150 737T160 753T171 760Q176 760 185 756T202 750Q208 748 214 747T227 745Q231 745 235 747T244 750Q252 750 259 748T274 744Z" />
<glyph unicode="T" glyph-name="T" horiz-adv-x="460" d="M469 715Q467 711 467 707T468 698Q466 686 468 686T470 684L463 674Q463 668 461 663T459 651Q456 646 454 641T446 631H433Q422 631 410 630T385 628Q383 628 380 628T374 629Q372 629 369 629T362 628Q347
628 333 629T302 631Q298 631 294 631T285 630Q284 613 284 596T283 560Q283 555 282 550T281 539Q280 526 280 514T279 489Q279 461 279 433T281 376Q282 361 283 347T284 318Q284 284 283 251T282 183Q282 172 281 163T280 142Q280 119 281 96T282 50Q282 39
282 28T281 6Q276 -2 274 -8T262 -14Q255 -12 255 -10T254 -5Q245 -4 241 -6T230 -11Q227 -10 224 -10T217 -10Q215 -10 213 -11T204 -13Q198 -14 197 -11T191 -8Q186 -11 180 -12T167 -14Q161 -10 161 -7T160 1Q159 3 157 6T152 12Q154 26 155 37T156 61Q156 87
154 112T152 163Q152 171 154 180T156 199Q154 207 155 208T156 212Q156 218 156 224T155 236Q155 248 155 260T156 284Q156 289 156 294T155 305Q154 314 154 324T155 344Q155 392 154 439T152 534Q152 557 154 581T157 629Q157 632 155 637T151 644Q146 644 142
644T132 645Q121 645 111 642Q92 641 75 640T39 637Q27 638 25 638T19 637Q11 637 7 641V654Q1 666 2 667T3 670Q3 673 -2 676T-8 688Q-9 696 -12 700T-15 708Q-15 715 -12 724Q-3 729 5 731T25 736Q31 738 36 740T47 743Q54 744 61 744T75 745Q90 748 106 750T138
752Q152 752 166 749T191 745Q207 745 221 743T252 741Q254 741 258 740T269 738H366Q374 736 377 737T384 738Q392 738 399 737T414 736Q421 736 425 737Q433 736 440 733T456 729Q460 726 462 722T469 715Z" />
<glyph unicode="U" glyph-name="U" horiz-adv-x="543" d="M471 120Q461 119 459 121Q455 119 452 117T444 112Q430 107 417 99T389 84Q381 80 374 78T358 71Q346 65 334 59T309 47Q302 45 296 43T282 39Q274 36 268 33T254 26Q249 24 244 23T232 18Q227 16 224
13T215 8Q207 5 199 2T182 -5Q174 -9 171 -12T157 -19Q147 -25 146 -25T143 -26Q140 -28 138 -29T132 -33Q126 -33 120 -34T108 -35Q101 -31 99 -27T96 -16Q92 -11 89 -5T81 6Q74 2 73 6T70 16T68 27T66 35Q61 54 61 63Q61 68 63 69T65 74Q66 84 67 97T68 124T68
152T68 177Q68 222 67 264T66 350Q66 370 67 390T68 430Q68 479 69 527T71 624Q71 644 69 664T66 706Q65 717 67 723T68 737Q71 738 79 738T95 738T111 739T121 741Q128 736 135 736Q142 736 148 742Q153 740 153 739T159 738Q168 739 173 739T182 740Q193 732
195 721T199 697T200 672T201 651Q201 645 202 639T203 625Q203 620 203 615T202 605Q202 576 202 546T203 487Q203 435 202 383T200 278Q200 267 201 256T202 234Q202 228 202 222T201 210Q201 173 204 136Q208 137 221 141T248 151T274 162T289 171Q293 171 300
174T315 181T330 190T341 197Q340 217 340 237T340 278Q340 333 341 388T343 500Q343 535 342 570T341 640Q341 651 341 662T342 685Q342 702 342 718T343 752Q353 757 354 757Q360 757 362 757T367 755Q370 754 372 754T378 755Q383 755 388 753T398 751Q406 752
406 749T410 746Q418 749 421 746Q424 744 432 741T449 733T465 726T472 719Q475 703 474 685T473 651Q473 637 474 623T475 595Q475 587 475 579T476 564Q477 559 477 556T477 548Q477 543 479 535Q478 530 478 525T478 514Q478 500 479 485T480 455Q480 445 479
436T477 418L478 399Q478 389 479 379T480 358Q480 353 480 348T478 338Q477 333 477 327T477 316Q477 302 478 288T479 260Q479 251 479 243T478 225Q478 207 479 188T481 151Q481 143 479 134T471 120Z" />
<glyph unicode="V" glyph-name="V" horiz-adv-x="514" d="M408 769Q416 769 419 766T425 757Q435 758 445 754T458 745Q466 744 468 741T474 737L485 738Q489 734 500 730T514 721Q512 716 512 711T513 698Q510 683 504 671T492 648Q489 643 488 637T484 626Q482
622 481 619T477 611Q477 606 475 601T471 590Q471 584 470 582T469 577Q450 531 439 491T417 411Q412 399 407 381T395 339T379 287T363 236T350 196T343 177Q340 160 334 143T324 106Q319 100 318 93T313 78Q305 79 300 74Q299 66 301 59T304 44Q300 33 294 30T286
20Q279 22 276 18T268 14Q256 17 254 10Q248 12 246 9T242 4Q234 4 230 1T219 -4Q215 -2 211 0T204 6Q198 23 193 39T183 73Q181 81 178 88T173 103Q172 108 172 111T171 119Q169 124 167 129T163 139Q155 161 151 184Q146 201 142 217T133 251Q130 265 126 280T116
308Q114 324 108 338T101 368Q96 384 93 400T84 432Q82 440 79 447T74 461Q71 470 69 480T65 500Q62 509 59 517T53 535Q48 552 44 568T34 602Q29 621 25 639T9 675Q6 680 5 686T0 699Q2 707 1 717T4 734Q14 734 28 734T49 733Q53 734 55 736T62 739Q68 736 74
736Q83 736 88 740Q99 735 100 738T105 741Q111 739 114 733T120 721Q131 701 136 682T148 640Q155 620 161 601T172 561Q175 551 177 541T181 521Q184 510 188 501T196 480Q198 469 200 459T205 437Q207 429 210 422T215 407Q217 399 219 391T223 374Q228 354
234 335T245 295Q250 298 251 306T255 319Q257 331 261 345T270 371Q271 376 272 380T276 389Q279 395 280 401T283 415Q287 429 291 443T300 471Q304 484 307 498T315 524Q320 535 323 545T330 566Q333 577 335 588T342 608Q344 613 346 619T351 632Q356 648 360
664T371 696Q376 710 383 723T395 750Q399 760 402 763T408 769Z" />
<glyph unicode="W" glyph-name="W" horiz-adv-x="739" d="M645 737Q649 730 655 731T669 730L680 726Q686 725 689 724T695 720Q705 721 718 715T734 705Q722 663 710 624T686 544Q683 535 680 522T673 494T665 467T658 447L653 432Q635 360 616 290T574 147Q566
124 562 100T550 51Q542 39 542 30T540 12T537 -5T528 -16Q528 -24 525 -28T519 -37Q511 -37 503 -30T487 -17Q482 -9 478 0T472 19Q463 60 453 100T433 180Q433 183 432 190T428 205T425 219T422 227Q416 265 407 302T383 375Q383 381 381 387T379 399Q377 403
376 409T371 417Q366 417 366 411T365 400Q358 377 354 362T349 332Q343 321 343 306Q340 301 339 294T336 281Q319 217 300 159Q298 152 297 145T294 129Q288 103 284 78T276 27Q274 18 272 15T268 11T265 10T263 6Q258 -2 260 -4T262 -8Q262 -10 257 -10T249
-11Q241 -8 237 -12T229 -16Q226 -11 222 -8T216 -6Q206 -1 204 0T199 3Q197 16 192 28T182 53Q178 67 176 81T171 111Q169 118 166 128T162 144Q160 156 160 160T157 167Q157 183 150 203T140 241Q129 299 116 351Q114 359 111 366T105 381Q100 396 96 411T87
443Q83 456 80 468T72 495Q70 501 67 507T61 520Q57 534 54 546T47 571Q39 598 31 624T14 678Q14 685 13 688T13 697Q11 701 11 706T10 716V730Q15 732 26 735T42 739Q55 738 61 739T71 744Q74 744 76 743T82 742Q94 745 96 743Q100 744 102 746T109 749Q111 749
114 744T119 737Q121 732 123 728T127 718Q133 703 137 684T148 648Q153 637 156 625T163 600Q165 595 167 590T171 580Q174 568 177 558T184 536Q196 501 206 466T225 395Q227 385 230 372T239 351Q243 354 244 362T248 375Q250 381 251 387T255 399Q258 413 261
425T268 451Q273 473 278 495T289 541Q293 555 297 570T305 599Q307 606 308 613T312 628Q315 636 318 644T324 660Q331 680 337 700T352 739Q354 741 356 742T361 746Q370 738 373 734T383 729Q387 726 388 722T396 718Q399 716 400 713T406 707Q410 698 411 699T415
699Q417 696 426 692T440 686Q440 682 441 679T443 672Q443 667 440 655T434 636Q439 634 441 634T445 635Q455 618 457 598T462 560Q464 552 465 545T469 529Q474 509 478 490T488 450Q488 445 492 439Q492 433 495 420T503 392T512 364T520 345Q525 348 526 359T531
375Q543 428 556 480T584 586Q593 622 602 655T625 723Q627 727 627 735Q639 738 644 733L645 737Z" />
<glyph unicode="X" glyph-name="X" horiz-adv-x="484" d="M246 488Q252 502 255 505T259 517Q269 537 276 558T294 601Q303 623 309 644T325 688Q326 692 329 700T335 717T341 733T346 744Q348 747 349 749T352 755Q358 755 360 755T365 754Q372 754 373 753T378
749Q389 748 395 746T407 739Q421 730 429 728T443 719Q464 717 464 697Q459 683 453 670T441 643Q432 614 421 588T397 535Q388 515 380 494T361 453Q356 436 351 425Q345 412 338 399T326 372Q321 367 318 361T311 348Q313 339 318 332T329 315Q330 308 333 302T339
288Q351 266 362 239T386 191Q399 171 405 155T422 119Q424 114 427 111T433 102L442 84Q446 75 451 67T462 49Q462 44 463 41T464 32Q457 20 455 20T449 18Q431 11 426 -8Q421 -10 416 -11T411 -19Q400 -26 392 -20Q387 -25 383 -31T372 -41Q364 -36 361 -29T351
-16Q350 -9 347 -4T343 7Q341 10 338 18T330 34T322 48T316 57Q308 73 303 89T289 122Q277 149 265 175T241 228Q236 227 230 218T219 196T210 173T205 155Q200 148 198 142T191 130Q186 113 179 98T164 66Q164 63 163 61T162 55Q151 37 140 19T120 -20Q117 -23
113 -26T104 -29Q97 -29 91 -24T80 -15Q62 -8 57 -1T37 6Q32 13 30 12T25 11Q17 14 15 18T11 26Q11 36 10 39Q11 43 12 46T15 53Q26 67 31 82T48 110Q51 119 56 127T63 145Q70 154 75 163T83 183Q85 185 86 188T89 193Q92 202 96 210T102 228Q104 229 110 240T122
265T134 291T142 308Q149 322 156 332T168 358Q165 364 164 370T157 381Q157 392 150 402T141 424Q133 437 129 452T119 482Q118 486 116 490T112 498Q103 515 95 530T78 562Q73 572 65 585T52 609Q44 628 37 646T22 684Q22 692 19 701T16 718Q22 724 25 726T31
731Q39 731 46 738Q56 739 66 741T85 750Q95 750 101 753T115 757Q123 755 125 753T130 749Q159 684 188 619T246 488Z" />
<glyph unicode="Y" glyph-name="Y" horiz-adv-x="463" d="M473 708Q462 688 448 661T426 614Q423 607 421 601T415 587Q410 572 403 559T389 530Q380 510 371 490T352 447Q342 427 337 413T325 383T315 354T307 327Q298 311 292 303Q290 285 288 267T286 230Q286
221 287 213T290 195Q291 182 291 170T291 144Q292 119 293 95T296 44Q297 26 295 14T293 -12Q290 -14 287 -15T280 -18Q269 -18 266 -18T259 -19Q250 -13 249 -13T247 -14Q235 -10 234 -8T230 -4Q219 -4 212 -7Q209 -5 207 -3T202 1Q193 2 187 3T177 7Q174 15
171 21T167 37Q167 45 169 52T172 67Q172 72 172 76T171 85Q171 90 173 98Q170 121 170 146T171 195Q171 218 167 238Q168 251 167 256T166 268Q166 273 167 278T168 289Q168 290 167 299T163 319T159 339T157 351Q147 369 142 385T131 412Q127 420 123 428T116
445Q114 450 113 456T109 467Q105 475 102 484T93 500Q89 509 86 516T82 531Q79 543 73 552T61 572Q58 578 57 583T53 593Q51 597 48 603T40 612Q38 621 33 628T26 644Q21 651 15 658Q11 673 4 685T-9 712Q-5 733 14 738Q24 750 26 751T35 752Q41 757 47 760T61
762Q62 766 66 769T75 772Q81 772 85 766T95 757Q103 743 111 730T126 703Q133 689 138 675T155 648Q160 628 170 611T188 573Q193 561 199 550T211 525Q214 519 216 513T220 501Q222 496 224 488T229 475Q236 482 241 493Q248 507 255 519T269 546Q277 559 280
573T289 601Q291 606 293 611T298 622Q301 628 303 634T307 646Q314 665 322 683T340 721Q341 724 344 730T352 742T361 754T368 761Q370 763 374 763T382 765Q391 765 395 760Q407 755 413 753T422 744Q437 734 444 733T456 724Q467 717 469 714T473 708Z" />
<glyph unicode="Z" glyph-name="Z" horiz-adv-x="440" d="M372 763Q373 760 381 756T392 752Q406 754 408 752T414 746Q418 748 420 750T428 753Q433 750 434 745T439 734Q438 721 439 718T440 710Q440 695 431 678T418 645Q413 640 412 634T406 623Q403 613 397
606T389 588Q388 587 385 581T377 568T370 554T365 545Q362 540 361 536T356 527Q354 521 350 513T340 495T330 478T326 465Q319 457 318 447Q291 396 270 343T225 237Q223 228 223 226T220 223Q217 216 213 210T207 196Q203 185 201 176T191 156Q190 150 187 145T185
133Q188 130 194 130T205 129Q211 129 217 129T229 130Q235 130 240 130T250 129H275Q279 129 282 129T289 128Q300 128 312 129T337 130Q344 130 352 130T368 129Q371 128 372 126T379 126Q388 117 390 115T394 111Q394 107 394 105T395 99Q395 88 397 84Q391
75 393 71L388 60Q388 55 386 50T386 39Q381 31 380 22T373 4Q365 1 357 1T341 0Q336 2 327 2Q319 2 312 1T296 0Q293 0 290 0T284 1Q273 -1 273 0T270 1Q259 1 248 1T226 0Q222 0 219 -1T213 -2Q210 -2 207 -1T201 0Q196 0 190 -1T178 -2Q175 -2 172 -2T166 -1Q161
-1 156 -3T145 -3L131 -5Q115 -5 100 -7T68 -9Q59 -9 56 -8Q51 -4 44 -3T31 1Q30 9 24 13T13 22Q14 34 11 37Q12 53 5 58Q6 67 12 75T19 92Q27 100 29 104T31 113Q37 120 42 130T53 153T62 176T69 197Q77 208 81 220T90 244Q98 258 100 264T108 276Q109 280 113
291T123 316T133 339T141 353Q142 358 145 363T148 373Q158 386 164 405T177 438Q184 453 192 467T208 497Q239 557 270 618Q268 623 262 623T251 626Q243 624 236 625T221 626Q202 630 190 630T165 629Q159 629 153 630T140 631Q125 631 110 629T80 624Q71 626
62 626T44 628Q40 643 42 645Q40 648 38 650T33 656Q34 665 32 667T27 675Q27 682 27 688T28 702Q26 706 23 708T18 714Q19 719 19 722T19 730Q25 735 32 737T43 746Q56 750 69 751T96 752Q110 752 122 752T147 750Q156 750 163 748T179 744Q184 743 189 743T199
744Q216 744 233 744T268 743Q282 743 294 743T318 745Q322 749 324 753T328 761Q337 761 340 761T345 760L357 755Q361 755 366 756T372 763Z" />
<glyph unicode="[" glyph-name="bracketleft" horiz-adv-x="348" d="M344 751Q346 734 347 731Q347 728 346 725T344 719Q346 709 348 701Q344 696 343 690T342 678Q339 674 337 671T331 663Q311 663 301 664T281 663Q264 667 251 667T230 662Q225 664 216 664Q208
664 201 662T185 658Q183 654 183 651T180 644Q181 638 182 633T184 621Q187 541 187 462Q187 439 186 418T185 374Q185 331 186 289T188 205Q188 182 187 160T185 114Q185 95 186 77T187 40V8Q187 -11 187 -30T189 -69Q217 -74 244 -72T299 -76Q307 -78 315 -81T330
-88Q333 -94 339 -96T346 -106Q346 -111 345 -115T344 -123Q344 -127 346 -130T348 -138Q348 -144 346 -158T342 -178Q314 -181 296 -181T257 -182Q244 -182 232 -181T206 -180Q193 -180 170 -183T131 -189Q124 -186 118 -184T104 -177Q102 -173 102 -168T102 -159Q100
-154 97 -149T92 -138Q83 -131 81 -128T77 -120Q75 -113 74 -92T73 -45T72 4T72 38Q72 53 71 68T70 98Q70 103 71 107T72 117Q72 128 71 138T70 159Q70 171 71 183T73 209Q73 213 72 217T71 225Q71 244 71 262T72 301V356Q71 367 70 378T69 400Q69 410 69 419T70
439Q70 445 70 451T69 463L70 483Q71 512 69 540T67 598Q67 603 65 609Q63 620 64 630T61 650Q63 655 63 661T63 672Q63 681 63 690T62 709Q62 714 62 719T66 731Q62 739 62 752Q66 765 73 769T87 774Q104 774 121 773T155 771Q172 771 190 774Q194 773 197 773T204
773Q212 773 220 774T238 775Q246 776 254 776T273 774T292 773T307 771Q312 770 317 767T330 763Q332 759 336 757T344 751Z" />
<glyph unicode="\" glyph-name="backslash" horiz-adv-x="388" d="M31 687Q31 690 32 699T38 709Q48 706 48 711T54 716Q68 722 78 722H89Q94 728 99 731L119 696Q127 674 135 652T155 608Q161 594 166 579T178 549Q183 533 188 518T202 488Q203 481 205 475T210
463Q223 431 234 398T257 332Q271 294 285 255T314 177Q318 168 324 153T338 122T350 91T355 68Q356 62 355 60T354 55Q354 50 355 47T357 38Q357 30 353 27Q347 26 344 27T337 28Q333 18 325 18T309 14Q301 20 297 20Q292 17 290 13T282 8Q278 14 269 38T249 90T229
142T218 174Q214 182 212 185Q198 228 182 268T152 351Q141 383 130 413T106 474Q102 485 100 496T92 517Q90 522 87 526T82 537Q76 549 72 562T61 589Q58 595 54 605T46 625T39 646T33 662Q32 668 32 674T31 687Z" />
<glyph unicode="]" glyph-name="bracketright" horiz-adv-x="358" d="M4 751Q7 755 11 757T18 763Q26 764 31 767T41 771Q53 773 75 774T109 776Q119 775 127 774T143 773Q147 773 151 773T158 774Q176 771 194 771Q211 771 227 772T261 774Q267 774 275 770T285
759Q286 740 283 731Q286 719 286 709Q286 699 285 690T284 672Q284 660 287 650Q284 640 284 630T284 609Q282 603 282 598Q282 569 280 541T279 483V472Q280 457 280 451T279 439Q279 429 279 420T280 400Q280 389 278 378T276 356V301Q276 281 277 263T278 225Q278
221 277 217T275 209Q275 195 277 183T279 159Q279 148 278 138T276 117Q276 112 277 108T279 98Q279 83 278 68T276 38Q276 28 276 5T276 -44T274 -91T271 -120Q269 -124 267 -127T264 -135Q254 -143 251 -148T246 -159Q246 -163 246 -168T244 -177Q236 -181 230
-183T217 -189Q210 -188 200 -187T179 -184T158 -181T142 -180Q129 -180 117 -181T91 -182Q72 -182 53 -182T14 -182Q4 -172 2 -158T0 -138Q0 -134 1 -131T3 -123Q3 -119 3 -115T2 -106Q2 -98 8 -96T17 -88Q25 -84 32 -81T48 -76Q76 -70 103 -72T158 -69Q161 -30
161 8V40Q161 59 162 77T163 114Q163 137 161 159T159 205Q159 247 160 289T162 374Q162 396 162 417T161 462Q161 541 164 621Q165 627 166 632T168 644Q165 648 163 658Q155 660 148 662T132 664Q122 664 118 662Q110 667 97 667T76 667Q57 665 47 664T27 663Q14
667 12 670T6 678Q5 683 5 689T0 701Q2 712 1 712Q3 722 2 725T0 731Q2 745 1 748L4 751Z" />
<glyph unicode="^" glyph-name="asciicircum" horiz-adv-x="495" d="M371 267Q366 276 359 279Q352 291 347 294Q343 328 332 358T309 420Q303 439 296 456T282 493Q273 518 263 540Q261 545 258 550T252 561Q250 566 250 570T247 580L241 564Q236 561 234 557T228
549Q227 543 227 539T221 529Q221 525 220 523T219 516Q211 502 206 482Q200 469 193 448T177 402T160 357T147 332Q144 320 141 308T134 285Q132 283 130 279T126 272Q115 275 111 278T102 283Q91 281 90 282Q89 287 86 291T76 295Q66 295 63 296T57 297Q50 299
46 301T36 304Q32 313 34 320T36 333Q38 338 38 344Q40 356 46 370T57 397Q74 436 88 475T120 552Q124 566 126 573T132 587Q137 599 142 609T152 631Q158 645 164 658T178 686Q183 697 186 701Q185 712 185 715T186 721Q197 728 200 727Q206 728 212 729T224 732Q233
740 242 739T258 744Q269 742 273 746T287 752Q294 741 296 737T302 727Q307 712 314 698T326 669Q327 664 328 660T332 650Q335 640 340 626T351 598T363 570T376 548Q378 546 379 541T381 532Q388 533 389 529T392 521Q397 507 404 495T416 469Q418 464 419 459T422
449Q426 438 430 429T439 410Q447 393 453 377T464 342Q460 338 456 337T450 329Q445 326 442 317Q435 317 431 313T421 305Q403 299 398 291T380 278Q379 272 378 271T372 267H371Z" />
<glyph unicode="_" glyph-name="underscore" horiz-adv-x="594" d="M563 67Q560 53 559 51T558 45Q550 35 549 20T538 -2H524Q521 -2 518 -2T511 -1Q505 -2 499 -2T485 -2Q471 -2 457 -2T428 -1Q424 -1 421 0T414 1Q405 2 397 2T380 3Q366 3 354 3T328 2Q286 2
245 2T162 3Q154 3 146 3T128 2Q125 2 117 0Q104 2 92 2T66 2Q63 2 53 4T40 8Q38 25 32 41Q33 56 32 62T31 74Q36 87 42 87T52 90Q57 90 63 92Q71 93 80 92T97 91Q114 91 131 91T165 92Q184 94 194 93T213 92Q223 92 232 92T252 93Q284 93 315 93T379 92Q388 92
397 92T416 90Q423 89 430 89T445 89Q452 89 458 89T470 88Q472 88 475 88T481 89Q488 88 495 88T510 87Q515 87 525 89Q535 85 547 83Q550 81 556 76T563 67Z" />
<glyph unicode="`" glyph-name="grave" horiz-adv-x="387" d="M136 764Q148 753 158 746T177 732Q212 706 245 681T312 629Q314 626 314 618T315 605Q309 595 308 595T305 594Q302 587 300 585T297 579Q293 576 289 575T281 570Q259 570 249 577Q244 579 234 587T211
604T187 622T170 635Q162 640 155 646T139 658Q123 672 107 684T74 710Q72 719 74 723T78 734T83 745T87 753Q111 767 124 767Q131 767 135 765L136 764Z" />
<glyph unicode="a" glyph-name="a" horiz-adv-x="517" d="M263 757Q268 739 273 722T285 687Q300 685 303 684T312 681Q323 655 325 626T333 568Q352 543 360 515T380 457Q383 447 384 445T385 440Q391 423 397 405T410 370Q413 361 416 353T423 336Q426 326 428
316T434 295Q441 275 449 255T465 215Q468 208 476 184T494 134T510 85T518 57Q518 49 519 41T522 23Q518 13 512 12T501 13Q496 11 492 9T483 5Q480 4 478 2T473 0Q461 0 458 -2T447 -5Q438 -2 436 -4T431 -8Q427 -10 422 -10T412 -11Q410 -7 409 -3T404 6Q393
22 389 37T381 61Q376 72 373 83T364 105Q358 103 353 101T345 94Q333 94 333 91T331 85Q325 83 322 81T310 80Q305 75 300 72T287 67Q279 59 271 54T251 51Q237 48 223 46T195 43Q179 48 175 52T163 56Q164 70 157 75Q157 78 157 84T160 93Q173 99 175 106T186
115Q188 119 190 122T195 130Q200 132 203 133T209 139Q214 139 224 145T237 156Q245 159 247 161T252 166Q262 165 265 168Q273 164 283 164Q287 164 290 164T297 165Q305 173 317 175T338 186Q335 194 333 205T326 224Q324 237 320 249T312 272Q301 314 286 354T261
436Q259 441 257 446T252 457Q247 445 247 444T245 440Q244 435 243 432T240 423Q237 415 235 406T230 388Q225 371 221 353T212 316Q202 285 192 255T171 193Q169 179 167 172T162 157T158 142T156 131Q142 99 133 66T109 2Q105 0 102 -3T95 -6Q87 -6 87 -2T82
2Q78 2 75 1T69 -3Q64 -1 58 -1T48 4Q41 -1 34 -1Q26 -1 18 4Q12 2 6 2Q3 2 -1 3T-7 6Q-8 10 -8 14T-8 23Q-8 33 -10 38Q8 89 25 141T59 248Q68 273 76 297T93 346Q97 360 100 372T108 397Q116 423 124 449T140 502Q144 505 145 509T148 518L147 531Q154 541 156
548T160 564Q165 576 169 590T175 616Q177 632 177 652T183 687Q185 691 186 692T188 699Q190 701 192 703T196 709Q201 717 200 723T198 736Q207 741 206 745T205 753Q205 758 211 762T220 772Q226 771 232 771T244 771Q251 758 261 758L263 757Z" />
<glyph unicode="b" glyph-name="b" horiz-adv-x="510" d="M455 563Q455 552 459 545T464 531Q462 521 468 508T474 480Q472 474 459 465T429 444T397 423T375 406Q380 398 387 393T402 383Q408 378 419 369T443 348T466 327T480 312Q482 311 483 305T486 292T487
277T488 268Q487 257 488 252T491 242T494 231T495 226Q495 220 490 215T479 206Q474 202 470 198T460 189Q454 184 447 180T433 170Q429 168 426 165T420 159Q411 151 400 144T379 130Q368 123 358 116T337 100Q322 91 308 83T279 65Q272 60 266 55T252 46Q232
35 212 23T173 -3Q157 -7 150 -9T136 -12Q130 -12 129 -8T123 -3Q108 -5 107 -4T102 0Q87 -2 77 0Q74 5 73 12T67 25Q69 35 68 44T68 62Q65 74 65 84Q65 97 68 111Q65 120 65 129Q65 137 66 145T67 161Q67 171 63 179Q63 197 63 214T62 250Q62 258 62 266T63 283Q62
288 62 298Q62 304 64 308T66 318Q66 329 65 339T63 360Q63 370 64 379T66 398Q63 402 62 407T61 417Q61 421 63 429Q63 437 62 446T61 463Q61 467 61 470T63 477Q61 484 61 491T61 505Q61 514 62 523T63 542Q62 557 63 565T66 583V640Q66 648 64 657T62 676Q62
681 63 691T66 706Q80 727 99 730Q103 732 105 735T114 739Q126 749 130 754T140 765Q143 765 145 766T152 768Q159 766 163 764T173 761Q193 746 212 732T252 701Q261 693 269 685T287 670Q292 667 298 664T309 657Q320 650 331 643T353 628L425 583Q433 578 440
573T455 563ZM312 520Q297 527 284 537T255 552Q247 560 238 563T221 572Q212 580 205 586T187 597Q182 566 180 537T177 477Q177 446 183 418Q194 423 204 429T224 441Q228 443 231 445T240 449Q245 453 250 457T260 464Q271 472 281 478T303 493Q308 497 314
499T326 507Q325 511 320 513T312 520ZM283 333Q280 333 277 334T270 336Q258 328 248 323T226 310Q221 307 216 303T206 297Q193 289 186 284T175 270Q177 242 177 214T176 157Q176 152 179 146Q188 147 211 159T259 188T308 219T343 241Q351 243 361 249T374
263Q355 285 330 299T283 333Z" />
<glyph unicode="c" glyph-name="c" horiz-adv-x="401" d="M225 273Q227 268 240 252T269 216T302 178T324 152Q343 124 363 97T401 41Q406 36 409 29T412 13Q412 4 408 4T398 1Q388 -6 380 -7T367 -8Q356 -8 343 -8T321 -9Q318 -10 314 -12T308 -15Q300 -15 297
-13T287 -8Q279 1 273 11T259 31Q253 38 246 43T233 57Q217 80 201 101T167 143Q159 154 150 164T132 184Q124 195 117 207T102 230Q96 240 85 254T62 284T38 312T16 333Q16 340 12 343T3 350Q1 355 -2 359T-5 370Q-5 374 -4 377T-2 383Q0 387 0 390T3 398Q8 411
17 421T32 444Q33 448 33 451T35 459Q38 465 44 471T55 484Q60 493 65 502T75 520Q89 543 106 564T138 607Q152 627 164 646T190 686Q197 696 206 708T224 733T244 755T264 771Q281 773 286 766T300 758Q314 755 319 749T329 738Q342 738 351 733T369 718Q365 707
359 698T347 679Q339 676 336 669T325 657Q314 640 303 624T281 592Q276 586 270 583T259 572Q257 569 256 566T253 559Q241 540 226 522T200 484Q195 477 192 470T185 455Q181 449 174 438T159 416T146 394T140 376Q141 371 153 356T179 324T207 292T225 273Z"
/>
<glyph unicode="d" glyph-name="d" horiz-adv-x="510" d="M65 -12Q61 -8 61 -1Q61 4 61 7T63 16Q68 39 68 62T70 109Q71 123 71 137T72 165Q72 248 67 330T62 497Q62 555 64 613T67 731Q76 736 89 735T110 744Q115 745 120 745T130 744Q141 744 151 751T173 763Q179
761 181 761T187 762Q190 762 200 755T222 739T244 722T258 712Q283 693 302 671T341 625Q359 602 380 579T421 535Q428 527 435 521T450 507Q453 503 455 499T461 489Q467 482 475 477T490 465Q495 461 505 449T515 431Q515 427 513 424T509 417Q508 414 508 408T507
400Q497 392 496 390T493 386Q490 382 486 380T479 372Q477 369 477 366T476 359Q471 348 460 338T441 316Q430 298 419 280T394 245Q388 237 382 230T369 214Q364 208 360 202T351 187Q340 173 330 160T309 132Q297 115 283 99T258 65Q247 47 235 32T209 3Q205
0 199 -6T187 -12Q183 -12 181 -9T173 -6Q172 -6 167 -7T155 -9L137 -11Q121 -19 114 -19T100 -19Q96 -20 94 -22T88 -24Q81 -24 77 -18T65 -12ZM365 420Q365 425 356 434T341 447Q334 453 325 458T309 471Q304 477 300 483T290 496Q272 516 254 536T221 580Q212
586 204 594T185 607Q183 601 183 595T184 582Q184 559 182 537T180 493Q180 439 182 387T185 281Q185 261 185 241T189 201Q187 195 187 190Q187 185 189 177Q197 182 202 189T213 204Q230 226 246 248T280 294Q291 309 302 323T325 354Q328 358 334 368T347 388T359
408T365 420Z" />
<glyph unicode="e" glyph-name="e" horiz-adv-x="388" d="M208 262Q210 257 222 241T251 206T281 170T302 144Q313 130 323 117T343 88L361 58Q369 48 375 41T386 22Q388 14 388 11Q388 4 383 1Q375 1 375 -1T370 -6Q366 -8 358 -8T344 -9Q335 -9 322 -9T300 -11Q298
-12 294 -14T288 -16Q280 -16 277 -14T267 -10Q259 -1 254 8T241 28Q234 35 227 40T215 53Q200 75 184 96T151 137Q143 148 134 157T117 177Q109 187 102 198T88 221Q82 230 72 244T50 273T26 301T6 321Q5 327 1 330T-8 337Q-10 342 -12 346T-15 356Q-15 363 -12
369Q-10 373 -10 376T-7 384Q-2 395 6 405T20 428Q22 431 22 434T24 441Q26 449 32 454T43 467Q48 475 52 483T62 502Q77 527 93 550T127 598Q140 618 152 636T178 674Q185 683 193 695T210 719T230 741T250 757Q265 758 270 751T285 743Q298 740 302 735T311 725Q325
725 333 720T350 705Q347 694 341 686T330 668Q322 664 319 657T308 646Q298 629 287 614T265 583Q259 574 253 567T241 552Q239 549 238 546T234 539Q222 520 208 504T182 467Q178 460 176 453T169 438Q165 432 158 422T143 401T131 379T125 361Q126 356 137 342T163
311T191 280T208 262ZM274 444Q281 429 289 418Q292 414 296 411T302 403Q304 401 306 395T310 385Q313 377 322 367T331 349Q331 344 329 338T326 327Q325 321 325 315T321 303Q316 298 310 297T299 292Q297 290 293 285T285 274T278 263T274 254Q262 253 259
253T251 253Q246 258 241 261T227 268Q225 276 218 286T206 304L199 313Q184 334 172 353T153 397Q172 411 182 418T205 431T228 442T250 456Q258 456 261 455T265 453T267 450T274 444Z" />
<glyph unicode="f" glyph-name="f" horiz-adv-x="442" d="M390 722Q398 710 403 698T409 680Q409 673 407 669T401 658Q363 641 325 623T246 589Q236 585 227 581T207 573Q205 571 199 570T187 568Q189 548 189 527T191 485Q191 479 193 474T195 462Q197 443 197
425T199 388Q236 404 272 420T346 453Q352 452 359 451T372 447Q374 445 376 442T381 437Q381 432 387 423T394 402Q394 400 397 396T401 389Q401 379 400 378Q407 373 409 365T412 349Q394 329 377 322T341 307Q336 304 330 301T318 295Q310 292 303 290T287 283Q275
276 260 267T233 256Q225 254 220 254T207 248Q206 236 206 225T207 202Q207 190 206 179T204 155Q204 135 202 116T200 77Q200 65 201 54T202 31Q202 25 200 20T196 10Q182 8 179 10T172 15Q167 15 166 11T159 5Q155 6 151 6T143 7Q135 4 129 0T114 -6Q99 -4 96
-4T88 -6Q81 1 81 11T76 30Q76 40 74 42T72 47Q72 50 72 53T73 61Q73 70 72 75Q73 81 74 93T76 119T77 146T77 167Q77 172 79 175T81 184Q81 192 81 198T80 212Q80 226 80 240T81 268Q81 311 77 352T72 436Q72 459 70 486T65 537Q65 542 64 545T62 553Q61 565 61
577T61 603Q61 611 61 625T61 655T61 685T63 705Q63 706 69 708T77 711Q82 711 85 708T92 702Q96 705 100 705T110 705Q125 708 128 705T134 701Q137 701 139 704T144 707Q152 707 153 703T159 699Q163 699 165 702T169 705Q172 705 175 704T181 702Q186 702 192
705T203 711Q211 713 217 716T231 721Q246 730 253 732T269 739Q286 747 301 754T334 769Q343 769 346 773Q353 770 364 772Q376 761 379 755T388 744Q394 736 396 736Q396 733 393 729T390 722Z" />
<glyph unicode="g" glyph-name="g" horiz-adv-x="600" d="M581 383Q583 376 589 368T595 356Q587 337 583 327T570 308Q570 305 564 295T551 274T536 252T526 237Q521 229 518 222T511 207Q502 191 493 177T475 146Q470 141 466 135T457 124Q445 102 430 83T401
41Q412 30 412 13Q412 4 407 4T398 1Q388 -6 380 -7T367 -8Q356 -8 343 -8T321 -9Q318 -10 314 -12T308 -15Q300 -15 297 -13T287 -8Q279 1 273 11T259 31Q253 38 246 43T233 57Q217 80 201 101T167 143Q159 154 150 164T132 184Q124 195 117 207T102 230Q96 240
85 254T62 284T38 312T16 333Q16 340 12 343T3 350Q1 355 -2 359T-5 370Q-5 377 -2 383Q0 387 0 390T3 398Q8 411 17 421T32 444Q33 448 33 451T35 459Q38 466 44 471T55 484Q60 493 65 502T75 520Q89 543 106 564T138 607Q152 627 164 646T190 686Q197 696 206
708T224 733T244 755T264 771Q281 773 286 766T300 758Q314 755 319 749T329 738Q342 738 351 733T369 718Q365 707 359 698T347 679Q339 676 336 669T325 657Q314 640 303 624T281 592Q276 586 270 583T259 572Q257 569 256 566T253 559Q241 540 226 522T200 484Q195
477 192 470T185 455Q181 448 174 438T159 416T146 394T140 376Q141 371 153 356T180 324T208 292T225 273Q227 268 240 252T269 216T302 178T324 152L332 139Q334 140 342 153T360 182T376 212T386 230Q389 233 396 246T411 274T426 302T434 319H422Q406 319 391
318T359 311Q352 312 347 315T335 321Q332 331 332 335T332 341Q331 345 330 347T328 353Q328 360 326 364T322 375Q322 379 322 383T321 390Q323 408 318 416Q318 430 322 434T328 446Q337 443 343 447T357 452Q373 452 383 457Q392 458 401 458T420 460Q425 461
428 462T437 464Q443 465 450 465T463 465Q479 467 495 467T527 469Q532 467 536 466T545 463Q548 461 550 459T557 455Q562 450 564 445Q562 436 565 432Q560 427 560 419T558 403Q565 401 570 392T577 383H581Z" />
<glyph unicode="h" glyph-name="h" horiz-adv-x="595" d="M488 740Q500 743 505 743T515 741Q521 737 525 731Q525 710 525 690T524 648Q524 610 525 572T525 496Q527 487 526 486T525 483Q525 445 527 408T529 333V200Q529 157 531 115T534 31Q534 27 529 20Q527
12 523 7Q514 6 506 10Q502 10 501 8T496 3Q488 3 483 -1T471 -5Q465 -5 460 -4T447 -2Q445 -2 441 -5T435 -10Q430 -10 426 -11T417 -13Q412 -9 412 -1T406 9Q406 14 406 20T407 32Q407 71 405 110T402 189Q401 206 401 222T402 256Q402 265 402 274T400 291Q394
292 390 290T380 287Q359 280 352 273Q346 273 342 271T333 267Q325 265 318 264T302 259Q297 257 292 255T282 251Q271 247 260 244T238 236Q227 234 219 230T203 222Q196 175 196 133T198 48Q196 42 196 35T193 22Q182 19 179 21T171 26Q167 25 165 22T160 17Q152
17 148 14T139 8Q136 7 133 8T126 7Q116 7 116 9T114 12Q110 12 109 9T103 3Q99 1 94 1T84 -2Q79 3 79 9T74 20Q72 34 72 47T68 75Q70 103 70 120T69 155Q69 171 68 187T66 219Q64 248 63 278T61 338Q61 363 63 387T66 436Q66 453 66 469T67 503Q67 517 67 530T66
557Q66 572 68 586T70 615Q70 632 68 648T66 682Q66 687 67 691T68 701Q67 712 69 714T73 721Q78 722 84 724T95 724Q101 730 111 730T127 737Q134 736 136 736T141 737Q150 735 150 737T154 740Q159 740 169 740T184 735Q194 682 195 627T196 518Q196 504 197
490T196 461Q196 455 195 450T194 438Q194 421 192 403T190 367Q202 360 210 362T227 368Q237 371 245 374T263 381Q271 385 280 387T298 392Q324 401 349 414T400 435Q398 490 398 544T398 653Q398 668 398 684T400 715Q401 719 402 721T404 729Q407 734 411 736T417
742Q419 740 421 739T427 736Q435 738 436 739T440 741Q445 743 453 743T466 743H478L488 740Z" />
<glyph unicode="i" glyph-name="i" horiz-adv-x="260" d="M219 680Q219 671 213 667T202 655Q192 646 185 637T167 618Q163 614 156 608T142 595T127 583T114 578Q106 578 94 583T72 591Q65 592 60 592T49 598Q31 602 26 610T15 628Q15 632 18 633T23 637Q33 650
40 658T56 676Q73 691 88 707T121 737Q129 738 133 743T145 748Q153 748 158 743T168 732T177 719T188 709Q195 704 207 696T219 680ZM82 494Q89 490 92 484T103 474Q109 471 116 471T128 469Q132 467 134 464T138 458Q144 453 156 449T173 440Q180 431 183 417T189
388T192 357T195 330Q197 307 200 285T203 239Q203 216 201 192T199 145Q199 133 199 115T190 87Q189 83 189 73V41Q189 35 190 29T191 16Q191 5 185 0Q182 1 179 1T172 1Q161 1 156 -3Q145 -2 135 -1T114 0Q97 0 77 -5Q73 5 73 16T69 36Q68 39 68 41T67 47Q70
59 70 63T70 73Q70 87 69 101T70 130Q70 135 71 139T73 148Q73 153 71 155T69 160Q69 163 69 170T72 179Q72 187 72 194T73 209Q73 225 72 241T71 272Q71 279 70 281T68 284T65 285T62 289Q66 333 59 377T52 466Q52 473 54 476T59 482T64 486T68 494Q76 492 82
494Z" />
<glyph unicode="j" glyph-name="j" horiz-adv-x="436" d="M368 5Q362 5 358 3T349 -2Q341 -7 341 -9T339 -12Q330 -12 322 -9T304 -6Q296 -2 289 2T275 14Q266 14 263 13T254 12Q241 17 230 26T205 41Q201 46 196 48T186 55Q177 59 160 70T123 93T86 118T62 137Q58
138 50 143T35 156T21 170T15 182Q15 187 20 190T27 199Q28 201 28 204T28 210Q33 218 33 222T35 231Q40 237 44 242T53 253Q52 264 57 269T68 279Q73 279 80 278T92 275Q102 270 102 269T104 265Q109 261 114 258T124 252Q135 244 146 236T170 220Q184 212 203
199T239 180Q241 186 241 196Q241 203 241 210T240 225Q240 236 238 247T234 268Q229 316 228 362Q227 376 226 389T225 416Q225 435 225 454T226 493Q226 510 227 527T228 561Q228 578 228 593T229 625Q229 650 229 680T231 735Q233 745 237 750Q255 749 266 749T291
748Q295 748 297 746T303 743Q307 743 309 744T316 746Q323 746 329 740Q340 743 346 741Q351 736 352 727T356 710Q356 701 356 696T357 686Q357 675 356 664T355 642Q355 629 356 616T358 590Q358 576 357 564T356 539Q356 529 356 520T357 502Q357 481 357 460T356
418Q356 413 356 406T356 393Q356 388 352 382Q354 349 355 316T359 250Q359 242 360 233T362 214Q364 203 364 192T365 170Q366 156 367 143T370 115Q371 104 373 93T375 71Q375 57 374 38T368 5Z" />
<glyph unicode="k" glyph-name="k" horiz-adv-x="547" d="M480 -2Q475 -14 459 -22Q452 -18 447 -13T433 -4Q427 8 424 10T417 14Q411 19 407 26T398 38Q396 39 391 44T379 56T368 67T362 73Q353 79 346 86Q344 89 342 92T337 98Q329 101 324 106T315 119T305
131T292 140Q285 150 275 156T258 172Q252 179 245 185T230 198Q226 204 217 215T201 228Q200 205 200 182T198 136Q198 124 198 111T198 85Q197 80 196 75T194 63Q194 51 193 48T190 41Q187 31 185 17T174 -6Q163 -7 157 -4Q155 -6 153 -8T147 -10Q145 -8 141
-7T134 -5Q129 -5 124 -7T113 -9Q108 -9 105 -7T96 -4Q93 -4 89 -7T81 -10Q76 -10 73 -9T65 -6Q65 -3 65 0T65 6L61 31Q62 38 63 45T66 58Q67 74 67 88T68 118Q68 144 68 169T68 220Q69 229 70 238T72 257Q72 283 75 308T80 359Q82 379 82 398T82 436Q82 473 81
509T80 582Q80 594 81 614T79 646Q80 675 79 703Q83 705 83 709T84 717V731Q93 741 99 741Q104 741 109 740T119 736Q132 739 136 737T145 733Q153 734 156 740Q167 738 167 735T169 729Q179 728 182 730T191 734Q200 732 203 729Q203 723 206 716T209 696Q209
687 208 679T207 662Q207 648 208 635T209 608Q209 604 209 601T208 593Q208 555 210 516T212 438Q212 436 211 433T212 427Q229 445 241 465T267 506Q279 521 291 542T313 580Q317 586 320 592T327 604Q329 609 332 613T338 624Q343 632 347 639T356 655Q361 663
366 669T377 683Q385 696 394 709T410 737Q420 742 428 748T445 760Q455 747 459 742T472 736Q474 733 474 729T478 723Q490 722 492 723Q495 718 500 716T511 711Q511 708 511 705T512 699Q524 694 524 680Q505 646 483 616T443 550Q438 539 432 529T421 508Q414
501 410 494T400 479Q396 474 392 469T384 458Q376 447 370 436T354 413Q348 403 340 393Q332 382 327 369T313 344Q305 332 305 327T299 308Q306 297 315 288T334 271Q342 260 352 252T374 233Q378 229 381 226T388 219Q399 207 414 196T444 175Q455 165 471 151T506
120T538 89T552 70Q547 55 541 52T531 41Q525 39 525 37T522 30Q515 25 510 19T500 6Q496 4 493 3T487 -3L480 -2Z" />
<glyph unicode="l" glyph-name="l" horiz-adv-x="449" d="M437 171Q444 162 445 157T449 146T452 135T454 129Q454 122 452 118T444 106Q404 91 365 77T285 48Q274 45 265 42T245 36Q243 34 239 33T228 29T217 26T209 24Q201 22 192 22T173 22Q168 21 166 17T162
9T154 1T140 -3Q131 -3 122 -2T103 3Q101 6 101 10T100 18Q91 19 86 17T76 13Q73 17 72 22T66 32Q65 37 65 42T65 52Q65 59 65 68T69 83Q72 140 72 197T72 311Q72 317 72 326T72 346T71 364T69 377Q70 384 70 390T70 404Q70 410 70 415T68 425Q69 429 69 436Q69
441 68 446T67 456Q67 464 67 471T68 487Q68 513 66 538T63 590Q63 624 63 658T61 726Q65 736 65 743Q79 750 87 748T103 746Q108 746 112 747T120 750Q125 749 128 748T137 746Q152 749 153 747T158 743Q162 744 164 746T171 749Q177 749 180 742T187 729Q187
718 191 709Q193 668 193 628T195 548Q196 530 197 511T199 473Q199 443 199 413T200 351Q200 346 200 342T201 333Q201 321 200 310T199 288V210Q199 200 199 190T199 169L203 157Q214 161 225 165T250 172Q258 174 265 176T280 180Q294 188 302 191T318 197Q335
203 351 209T384 222Q392 220 397 224Q407 222 415 222Q426 211 428 205T436 194Q434 189 436 188T440 183Q444 181 441 178T437 171Z" />
<glyph unicode="m" glyph-name="m" horiz-adv-x="786" d="M756 3Q751 -2 745 -3T733 -4Q718 -11 701 -11Q690 -5 689 -7T685 -11Q670 -18 658 -18T638 -24Q630 -18 630 -7T627 13Q622 20 620 30T617 52T615 73T609 92Q608 97 608 101T607 110Q608 127 606 137T602
158Q601 164 601 171T595 183Q598 197 596 204T593 217Q592 225 592 234T590 252Q584 300 577 348T564 444Q558 439 556 429T551 411Q545 393 540 374T530 337Q528 329 527 319T522 300Q512 271 505 250T490 207Q488 195 486 184T482 162Q481 156 479 145T475 129Q473
124 472 122T471 115Q461 100 458 82T445 47Q445 35 436 26Q431 25 427 24T417 20Q412 22 406 22T393 23Q388 24 384 26T375 30Q370 36 364 40T352 50Q346 65 341 70Q338 81 333 90T326 112Q323 123 319 132T309 153Q307 160 305 166T299 180Q298 188 294 200T287
221Q287 222 284 231T277 252T270 272T265 282Q263 287 262 291T258 302Q254 315 248 328T236 354Q231 364 229 373T224 392Q222 397 221 401T217 410Q215 416 213 422T209 436Q204 434 204 428T204 416Q202 405 202 395T201 373Q199 361 197 350T194 328Q194 301
191 274Q189 250 186 226T182 175Q182 156 178 138T176 99Q174 95 174 93T174 87Q174 82 174 76T173 65Q173 56 175 53Q172 44 172 34T172 13Q170 9 170 5T166 -3Q167 -20 156 -20Q153 -20 150 -19T144 -14Q133 -15 132 -9T125 -4Q113 -9 112 -7T105 -6Q97 2 95
1T90 0Q81 3 80 2T76 0Q71 5 63 5T48 6Q47 10 47 13T46 22Q46 28 46 33T47 45Q47 50 47 55T46 68Q46 75 47 81T48 96Q48 99 47 101T46 108Q52 121 52 128T52 143Q54 160 55 176T59 210Q59 238 60 256T65 294Q67 303 68 311T72 328Q74 343 74 359T77 392Q79 417
82 441T87 490Q89 509 91 527T94 563Q94 572 96 586T100 610Q102 634 103 657T105 703V714Q105 716 107 718T109 725Q109 734 113 737T121 749Q126 749 132 748T142 742Q149 744 156 744T168 749Q174 749 177 746T185 741Q189 743 193 744T201 748Q204 746 205
744T210 740Q225 744 230 741Q232 737 232 733T234 725Q244 715 247 703T258 680Q260 674 262 668T267 654L270 642Q274 632 280 618Q285 599 289 579T302 542Q303 536 305 528T310 513Q317 496 324 480T338 444Q344 425 348 405T360 366Q366 348 369 340T377 324Q377
321 378 314T383 300T389 286T395 278Q398 280 398 284T402 291Q403 302 405 318T413 344Q413 349 415 362T422 391T429 420T436 436Q438 449 439 452T443 457Q444 465 447 472T451 487Q453 504 456 515T464 542Q468 556 471 570T480 599Q492 637 501 666T525 724Q528
733 530 735T534 739Q542 742 550 742T568 741Q578 745 583 750Q587 745 595 745Q605 745 609 751Q613 749 615 750T623 749Q625 751 628 753T634 756Q642 746 646 741T653 728Q656 719 656 709T662 689Q661 676 663 650T669 594T677 539T684 508Q683 495 685 486T687
468Q687 465 688 456T690 436T692 416T695 402Q695 384 701 374Q706 349 709 324T716 273Q718 260 718 248T721 223Q722 218 723 213T726 203Q728 193 729 184T732 166Q733 161 735 156T735 144Q737 137 737 129T740 115Q740 94 743 78Q744 66 749 54Q751 42 752
29T756 3Z" />
<glyph unicode="n" glyph-name="n" horiz-adv-x="566" d="M389 746Q405 748 413 744T431 738Q436 737 441 737T453 738Q466 738 473 735T489 722Q491 720 494 717T498 710Q498 702 494 696T490 679Q490 662 494 646T499 612Q504 550 504 488T505 364Q505 356 505
350T500 338V325Q499 299 501 273T503 220Q503 197 501 174T498 127Q498 105 501 84T504 41Q499 32 498 27T494 18Q491 16 488 17T482 15Q477 9 475 1T465 -12Q463 -26 455 -33T442 -53Q430 -54 426 -52T416 -48Q415 -31 416 -24T418 -8Q418 2 413 7T406 20Q395
27 391 29T384 36Q378 44 374 53T365 70Q351 93 337 117T305 164Q302 169 298 173T291 182Q274 209 259 237T224 290Q216 300 212 312T200 334Q199 329 199 323T199 312Q199 278 200 245T202 177Q202 170 201 165T199 152Q199 142 200 133T201 115Q201 104 201
94T199 74Q197 61 194 50T191 26Q191 19 192 13T194 2Q187 -9 177 -9T159 -17Q153 -16 150 -18T143 -20Q139 -20 137 -19T131 -18Q126 -18 121 -23T111 -28Q108 -28 101 -24T85 -15T69 -4T62 5Q61 10 61 19Q61 31 62 42T66 66Q69 100 69 133T69 201Q69 215 69 229T70
257Q70 290 68 323T65 390Q65 413 67 435T69 480Q69 497 68 513T67 546Q66 557 67 569T68 593Q68 606 65 617T61 639Q61 645 63 650T66 662Q66 670 64 678T61 694Q61 702 63 709T65 724Q79 731 90 731Q101 731 106 723Q106 705 108 696T111 676Q111 670 111 662T111
647T115 634T128 629Q130 624 133 620T137 610Q143 614 144 621T144 634Q149 632 153 632T161 631Q163 617 166 607T168 582Q188 567 202 540T230 490Q237 479 246 470T261 447Q269 442 274 434T283 418Q303 383 327 350T377 285Q378 292 378 298T378 312L377 402Q377
410 377 417T375 432Q373 458 374 483T374 534Q372 561 372 589T369 645Q368 662 367 679T366 713Q366 734 370 751Q372 753 374 754T381 756Q387 756 389 746Z" />
<glyph unicode="o" glyph-name="o" horiz-adv-x="546" d="M542 397Q540 393 538 390T535 382Q539 378 542 374T546 364Q546 360 545 357T544 350Q540 343 536 337T529 324Q525 320 523 316T518 308Q513 306 512 302T506 294Q505 290 496 275T476 243T455 210T441
189Q439 184 437 181T431 174Q429 171 428 168T425 162Q423 158 421 155T416 147Q406 134 396 116T377 84Q372 76 368 68T358 52Q353 44 348 37T338 22Q330 16 324 8T310 -7Q297 -7 294 5Q281 8 281 5T281 0Q277 -2 276 -6T270 -12Q262 -10 257 -6T241 -2Q237 4
232 8T223 18Q221 24 218 28T211 36Q208 41 205 45T199 53Q192 62 186 70T174 88Q166 100 159 112T143 137Q139 143 135 149T128 161Q126 166 123 173T114 182Q112 190 107 194T97 204Q90 212 84 221T72 241Q52 269 35 296T0 352Q5 368 5 376T10 389Q10 393 12
401Q25 423 37 441Q48 458 52 469T62 492Q67 495 70 499T78 508Q80 519 87 526T96 545Q105 552 106 561Q119 570 122 585Q130 593 135 603T146 624Q158 634 165 650Q171 654 174 661T182 673Q190 686 194 694T204 712Q211 712 213 717T221 721Q221 730 226 737Q228
738 232 739T236 743Q234 755 237 757T242 761Q253 759 257 758T270 751Q280 751 284 747T293 741Q297 737 299 733T307 727Q315 716 324 703T341 679Q352 664 363 651T385 621Q388 616 396 604T414 577T432 552T443 538Q446 533 456 519T477 490T500 460T515 442Q526
427 531 418T542 397ZM313 209Q324 224 330 236T342 260Q352 272 354 277T359 287Q367 299 375 311T389 337Q395 341 398 347T407 358Q401 379 393 390T377 413Q374 418 371 423T365 433Q361 436 359 439T353 445Q351 450 347 458Q343 463 339 467T332 477Q328
481 322 488T310 503T298 519T290 532Q288 537 287 540T283 548Q278 555 273 560T263 573Q260 571 258 571T253 568Q246 555 238 544T221 520Q214 508 207 496T193 471Q188 464 184 458T174 443Q169 436 166 429T157 414Q149 404 144 396T134 377Q137 371 143 361T157
340T169 320T176 308Q184 301 189 293T202 276Q206 268 211 262T221 249Q226 242 234 229T250 201T266 175T279 160Q289 171 295 184T313 209Z" />
<glyph unicode="p" glyph-name="p" horiz-adv-x="499" d="M142 727Q146 728 149 730T156 732Q159 731 160 728T165 723Q168 725 170 727T176 730Q186 727 187 720Q192 718 196 716T205 712Q207 708 210 706T217 700Q227 698 243 689T270 675Q280 670 290 665T309
654Q318 649 327 643T346 632Q355 621 369 618T394 607Q403 602 411 597T427 586Q430 581 434 578T443 570Q463 559 466 553Q469 551 475 547T487 539T498 530T504 521Q500 512 500 507T496 497Q502 489 502 482Q497 470 485 462Q482 454 476 450T467 437Q459 432
458 429T454 423Q435 403 419 389T388 357Q378 352 371 345T358 328Q350 320 343 313T327 298Q325 294 321 292T314 284Q303 279 296 270T279 255L272 245Q269 243 264 239T253 229T243 218T238 210Q235 209 229 204T216 193T204 181T197 173L187 166Q188 139 188
112T189 57V23L182 14Q177 14 174 16T167 18Q163 18 160 14T153 8Q146 7 142 5T132 0Q126 3 120 3Q107 0 107 2T103 4Q95 -4 93 -4Q89 -4 86 -5T78 -6Q74 2 72 10T62 27Q65 37 61 41Q67 52 66 66T65 92Q65 99 65 105T66 118Q66 130 64 142T62 168Q62 198 64 228T66
289Q66 306 65 324T63 359Q63 370 64 379T66 398Q66 444 67 486T69 571Q69 585 69 597T68 624Q68 631 69 638T70 652Q73 683 73 714L72 730Q76 736 84 736Q95 736 101 729Q108 730 114 731T127 733Q136 733 142 727ZM201 568Q201 563 200 561T198 556Q198 553 198
550T199 542Q199 519 199 497T198 452L196 399Q196 394 197 388T198 377Q198 372 197 367T196 357Q196 344 199 331Q204 333 206 337T211 345Q234 366 254 389T295 435Q313 454 326 466T346 495Q329 506 311 517T273 537Q272 539 268 542T258 547T248 552T241 554Q232
562 222 564Q215 564 210 566T203 571L201 568Z" />
<glyph unicode="q" glyph-name="q" horiz-adv-x="546" d="M287 736Q290 738 292 740T299 743Q304 741 309 738T319 733Q336 716 347 689Q352 678 361 669T377 648Q381 640 385 634T394 620Q410 598 424 572T454 523Q468 498 481 474T510 424Q510 419 514 413Q515
397 514 393Q518 386 524 382T536 373Q537 365 534 359T529 344Q516 322 501 299Q493 288 487 276T472 253Q467 242 464 237T459 226Q449 215 445 202T430 177Q432 165 445 152T468 130Q471 124 475 120T483 110Q485 108 487 106T493 102Q494 95 498 91T509 84Q513
73 516 71T520 65Q520 60 518 54Q512 47 505 40T490 27Q487 21 484 13T476 -4T466 -20T456 -29Q443 -22 443 -15Q440 -14 434 -8T427 1Q402 15 387 38Q384 40 382 41T376 44Q374 49 371 51T365 59Q362 61 357 54T347 38T337 21T332 10Q326 5 321 0T309 -11Q297
-20 293 -24T286 -36Q277 -40 275 -41T271 -42Q266 -42 260 -36T249 -26Q244 -25 239 -24T229 -18Q223 -7 221 0T210 11Q210 16 208 18T202 24Q194 35 188 50T173 78Q165 90 155 102T136 125Q133 129 130 133T123 141Q117 152 111 162T97 183Q95 186 93 188T88
195Q82 203 78 211T69 228Q61 245 51 259T32 290Q24 308 16 322T2 351Q2 354 2 357T0 364Q5 377 7 382T10 392Q12 395 14 398T18 407Q42 439 62 473T104 540Q127 574 146 608T188 676Q188 682 190 684T193 691Q198 696 202 703T208 717Q211 722 214 727T220 738Q224
741 226 745T232 753Q237 755 239 758T249 761Q252 761 254 761T260 761Q265 759 267 755T276 750Q278 745 281 743T287 736ZM339 476Q330 490 323 503T305 529Q304 532 301 538T293 551T283 562T275 567Q268 562 262 558Q258 546 251 534T237 511Q230 503 225
497T216 479Q211 474 208 470T200 460Q197 450 190 438T174 414T158 390T144 368Q137 359 137 355T135 347Q140 333 149 321T165 296Q173 282 179 269T196 245Q214 222 229 197T266 151Q273 157 275 166Q282 174 288 183T299 200Q303 210 309 220Q318 234 327 246T343
273Q349 281 353 289T365 305Q367 317 373 325T386 343Q388 350 391 355T397 366Q390 386 380 404T358 441Q355 448 352 455T345 467L339 476Z" />
<glyph unicode="r" glyph-name="r" horiz-adv-x="523" d="M506 96Q505 81 512 74T525 55Q523 41 528 33Q525 27 522 20T513 7Q497 0 494 -5T482 -10Q477 -15 471 -20T460 -31Q455 -29 453 -26T447 -18Q437 -15 429 -8T415 9T404 29T394 49Q380 75 366 101T336
154Q328 167 321 180T305 208Q303 210 301 212T297 218Q290 228 287 240T272 261Q253 263 238 256T210 236Q211 229 211 223T211 211Q211 188 209 167T207 123Q207 113 208 103T211 82Q208 71 208 58Q208 51 209 45T211 32Q211 22 205 19T200 6Q188 1 177 -4T154
-11Q149 -12 144 -12T135 -13Q130 -15 127 -20T119 -26Q113 -26 112 -22T108 -14Q103 -12 100 -12T94 -9Q95 0 90 4T85 23Q85 34 86 44T88 65Q88 74 86 81T81 98Q80 102 81 106T82 114Q82 132 81 150T79 187Q79 194 79 200T80 212Q82 218 83 222T85 232Q85 251
81 269T77 306Q77 316 77 326T78 347Q78 376 77 404T76 460Q76 480 77 499T78 539Q78 564 76 588T74 639Q74 648 73 651T70 654T66 655T61 659Q61 665 66 667T71 684Q71 692 70 700T68 716Q68 728 73 740T82 763Q94 764 98 763T108 764Q111 753 121 753T139 750Q148
749 156 746T173 742Q175 736 181 734T195 729Q203 730 207 736T220 742Q226 742 234 734T246 720Q250 717 261 707T285 687T309 667T323 656Q364 615 399 582T477 521Q478 518 479 516T483 511Q483 503 480 499T477 489Q477 486 478 483T480 477Q481 473 481 470T480
462Q480 452 486 444T493 426Q491 417 485 415T475 410Q473 408 472 405T468 400Q446 390 436 382T415 365Q412 363 405 359T391 350T379 340T373 332Q373 325 381 313T394 293Q405 275 414 258T434 223Q454 192 471 160T506 96ZM343 468Q320 497 294 520T243 570L232
572Q226 582 219 589T203 605Q204 594 204 584T204 563Q204 531 203 501T201 439Q201 408 204 380Q225 380 242 392Q249 397 255 402T268 413Q276 418 286 425T307 439T327 453T343 468Z" />
<glyph unicode="s" glyph-name="s" horiz-adv-x="362" d="M251 737Q253 733 255 732T259 725Q266 720 270 718T275 709Q284 702 285 700T288 695Q293 691 297 688T304 679Q312 672 314 668T317 659Q313 652 301 640T274 615T245 589T223 569Q221 565 218 562T213
555Q207 550 202 545T190 536Q180 522 162 509T138 482Q139 479 142 476T148 471Q156 463 167 457T186 442Q194 435 202 429T218 415Q222 411 228 403Q238 395 247 389T266 374Q285 358 303 342T341 309L349 300Q349 292 353 282T362 264Q360 254 362 252T367 247Q366
228 368 222Q351 207 337 195T311 170Q302 159 293 151T272 132Q266 124 262 121Q255 114 248 110Q236 99 225 89T202 69Q194 62 187 56T173 41Q167 35 160 27T144 14Q141 8 136 4T127 -6Q120 -10 114 -14T100 -22Q92 -16 85 -11T68 -4Q62 1 59 6T48 13Q46 16 44
19T39 27Q27 28 20 42Q22 48 25 51T27 62Q33 72 41 79T58 95Q67 103 74 111T91 128Q96 133 101 137T112 147Q123 158 134 167T158 188Q174 204 191 218T222 251Q221 255 219 256T216 261Q200 276 185 290T151 316Q145 322 143 326Q125 339 109 355T72 382Q68 387
63 390T52 397Q49 402 46 405T37 411Q29 418 27 422T18 428Q16 433 12 436T2 443Q0 449 -4 453Q-5 461 -3 464T0 470Q-1 476 -5 479T-10 489Q-10 493 -8 494T-4 499L-1 514Q7 520 12 528T27 542Q37 557 52 567Q57 575 64 580T77 593Q85 598 90 604T104 615Q106
619 108 621T112 627Q139 653 159 672T202 710Q208 715 214 721T227 732Q229 734 232 734T238 736Q250 736 251 737Z" />
<glyph unicode="t" glyph-name="t" horiz-adv-x="460" d="M469 715Q467 711 467 707T468 698Q466 686 468 686T470 684L463 674Q463 668 461 663T459 651Q456 646 454 641T446 631H433Q422 631 410 630T385 628Q383 628 380 628T374 629Q372 629 369 629T362 628Q347
628 333 629T302 631Q298 631 294 631T285 630Q284 613 284 596T283 560Q283 555 282 550T281 539Q280 526 280 514T279 489Q279 461 279 433T281 376Q282 361 283 347T284 318Q284 284 283 251T282 183Q282 172 281 163T280 142Q280 119 281 96T282 50Q282 39
282 28T281 6Q276 -2 274 -8T262 -14Q255 -12 255 -10T254 -5Q245 -4 241 -6T230 -11Q227 -10 224 -10T217 -10Q215 -10 213 -11T204 -13Q198 -14 197 -11T191 -8Q186 -11 180 -12T167 -14Q161 -10 161 -7T160 1Q159 3 157 6T152 12Q154 26 155 37T156 61Q156 87
154 112T152 163Q152 171 154 180T156 199Q154 207 155 208T156 212Q156 218 156 224T155 236Q155 248 155 260T156 284Q156 289 156 294T155 305Q154 314 154 324T155 344Q155 392 154 439T152 534Q152 558 154 581T157 629Q157 632 155 637T151 644Q146 644 142
644T132 645Q121 645 111 642Q92 641 75 640T39 637Q27 638 25 638T19 637Q11 637 7 641V654Q1 666 2 667T3 670Q3 673 -2 676T-8 688Q-9 696 -12 700T-15 708Q-15 715 -12 724Q-3 729 5 731T25 736Q31 738 36 740T47 743Q54 744 61 744T75 745Q90 748 106 750T138
752Q152 752 166 749T191 745Q207 745 221 743T252 741Q254 741 258 740T269 738H366Q374 736 377 737T384 738Q392 738 399 737T414 736Q421 736 425 737Q433 736 440 733T456 729Q460 726 462 722T469 715Z" />
<glyph unicode="u" glyph-name="u" horiz-adv-x="543" d="M471 120Q461 119 459 121Q455 119 452 117T444 112Q430 107 417 99T389 84Q381 80 374 78T358 71Q346 65 334 59T309 47Q302 45 296 43T282 39Q274 36 268 33T254 26Q249 24 244 23T232 18Q227 16 224
13T215 8Q207 5 199 2T182 -5Q174 -9 171 -12T157 -19Q147 -25 146 -25T143 -26Q140 -28 138 -29T132 -33Q126 -33 120 -34T108 -35Q101 -31 99 -27T96 -16Q92 -11 89 -5T81 6Q74 2 73 6T70 16T68 27T66 35Q61 54 61 63Q61 68 63 69T65 74Q66 84 67 97T68 124T68
152T68 177Q68 222 67 264T66 350Q66 370 67 390T68 430Q68 479 69 527T71 624Q71 644 69 664T66 706Q65 717 67 723T68 737Q71 738 79 738T95 738T111 739T121 741Q128 736 135 736Q142 736 148 742Q153 740 153 739T159 738Q168 739 173 739T182 740Q193 732
195 721T199 697T200 672T201 651Q201 645 202 639T203 625Q203 620 203 615T202 605Q202 576 202 546T203 487Q203 435 202 383T200 278Q200 267 201 256T202 234Q202 228 202 222T201 210Q201 173 204 136Q208 137 221 141T248 151T274 162T289 171Q293 171 300
174T315 181T330 190T341 197Q340 217 340 237T340 278Q340 333 341 388T343 500Q343 535 342 570T341 640Q341 651 341 662T342 685Q342 702 342 718T343 752Q353 757 354 757Q360 757 362 757T367 755Q370 754 372 754T378 755Q383 755 388 753T398 751Q406 752
406 749T410 746Q418 749 421 746Q424 744 432 741T449 733T465 726T472 719Q475 703 474 685T473 651Q473 637 474 623T475 595Q475 587 475 579T476 564Q477 559 477 556T477 548Q477 543 479 535Q478 530 478 525T478 514Q478 500 479 485T480 455Q480 445 479
436T477 418L478 399Q478 389 479 379T480 358Q480 353 480 348T478 338Q477 333 477 327T477 316Q477 302 478 288T479 260Q479 251 479 243T478 225Q478 207 479 188T481 151Q481 143 479 134T471 120Z" />
<glyph unicode="v" glyph-name="v" horiz-adv-x="514" d="M408 769Q416 769 419 766T425 757Q435 758 445 754T458 745Q466 744 468 741T474 737L485 738Q489 734 500 730T514 721Q512 716 512 711T513 698Q510 683 504 671T492 648Q489 643 488 637T484 626Q482
622 481 619T477 611Q477 606 475 601T471 590Q471 584 470 582T469 577Q450 531 439 491T417 411Q412 399 407 381T395 339T379 287T363 236T350 196T343 177Q340 160 334 143T324 106Q319 100 318 93T313 78Q305 79 300 74Q299 66 301 59T304 44Q300 33 294 30T286
20Q279 22 276 18T268 14Q256 17 254 10Q248 12 246 9T242 4Q234 4 230 1T219 -4Q215 -2 211 0T204 6Q198 23 193 39T183 73Q181 81 178 88T173 103Q172 108 172 111T171 119Q169 124 167 129T163 139Q155 161 151 184Q146 201 142 217T133 251Q130 265 126 280T116
308Q114 324 108 338T101 368Q96 384 93 400T84 432Q82 440 79 447T74 461Q71 470 69 480T65 500Q62 509 59 517T53 535Q48 552 44 568T34 602Q29 621 25 639T9 675Q6 680 5 686T0 699Q2 707 1 717T4 734Q14 734 28 734T49 733Q53 734 55 736T62 739Q68 736 74
736Q83 736 88 740Q99 735 100 738T105 741Q111 739 114 733T120 721Q131 701 136 682T148 640Q155 620 161 601T172 561Q175 551 177 541T181 521Q184 510 188 501T196 480Q198 469 200 459T205 437Q207 429 210 422T215 407Q217 399 219 391T223 374Q228 354
234 335T245 295Q250 298 251 306T255 319Q257 331 261 345T270 371Q271 376 272 380T276 389Q279 395 280 401T283 415Q287 429 291 443T300 471Q304 484 307 498T315 524Q320 535 323 545T330 566Q333 577 335 588T342 608Q344 613 346 619T351 632Q356 648 360
664T371 696Q376 710 383 723T395 750Q399 760 402 763T408 769Z" />
<glyph unicode="w" glyph-name="w" horiz-adv-x="739" d="M645 737Q649 730 655 731T669 730L680 726Q686 725 689 724T695 720Q705 721 718 715T734 705Q722 663 710 624T686 544Q683 535 680 522T673 494T665 467T658 447L653 432Q635 360 616 290T574 147Q566
124 562 100T550 51Q542 39 542 30T540 12T537 -5T528 -16Q528 -24 525 -28T519 -37Q511 -37 503 -30T487 -17Q482 -9 478 0T472 19Q463 60 453 100T433 180Q433 183 432 190T428 205T425 219T422 227Q416 265 407 302T383 375Q383 381 381 387T379 399Q377 403
376 409T371 417Q366 417 366 411T365 400Q358 377 354 362T349 332Q343 321 343 306Q340 301 339 294T336 281Q319 217 300 159Q298 152 297 145T294 129Q288 103 284 78T276 27Q274 18 272 15T268 11T265 10T263 6Q258 -2 260 -4T262 -8Q262 -10 257 -10T249
-11Q241 -8 237 -12T229 -16Q226 -11 222 -8T216 -6Q206 -1 204 0T199 3Q197 16 192 28T182 53Q178 67 176 81T171 111Q169 118 166 128T162 144Q160 156 160 160T157 167Q157 183 150 203T140 241Q129 299 116 351Q114 359 111 366T105 381Q100 396 96 411T87
443Q83 456 80 468T72 495Q70 501 67 507T61 520Q57 534 54 546T47 571Q39 598 31 624T14 678Q14 685 13 688T13 697Q11 701 11 706T10 716V730Q15 732 26 735T42 739Q55 738 61 739T71 744Q74 744 76 743T82 742Q94 745 96 743Q100 744 102 746T109 749Q111 749
114 744T119 737Q121 732 123 728T127 718Q133 703 137 684T148 648Q153 637 156 625T163 600Q165 595 167 590T171 580Q174 568 177 558T184 536Q196 501 206 466T225 395Q227 385 230 372T239 351Q243 354 244 362T248 375Q250 381 251 387T255 399Q258 413 261
425T268 451Q273 473 278 495T289 541Q293 555 297 570T305 599Q307 606 308 613T312 628Q315 636 318 644T324 660Q331 680 337 700T352 739Q354 741 356 742T361 746Q370 738 373 734T383 729Q387 726 388 722T396 718Q399 716 400 713T406 707Q410 698 411 699T415
699Q417 696 426 692T440 686Q440 682 441 679T443 672Q443 667 440 655T434 636Q439 634 441 634T445 635Q455 618 457 598T462 560Q464 552 465 545T469 529Q474 509 478 490T488 450Q488 445 492 439Q492 433 495 420T503 392T512 364T520 345Q525 348 526 359T531
375Q543 428 556 480T584 586Q593 622 602 655T625 723Q627 727 627 735Q639 738 644 733L645 737Z" />
<glyph unicode="x" glyph-name="x" horiz-adv-x="484" d="M246 488Q252 502 255 505T259 517Q269 537 276 558T294 601Q303 623 309 644T325 688Q326 692 329 700T335 717T341 733T346 744Q348 747 349 749T352 755Q358 755 360 755T365 754Q372 754 373 753T378
749Q389 748 395 746T407 739Q421 730 429 728T443 719Q464 717 464 697Q459 683 453 670T441 643Q432 614 421 588T397 535Q388 515 380 494T361 453Q356 436 351 425Q345 412 338 399T326 372Q321 367 318 361T311 348Q313 339 318 332T329 315Q330 308 333 302T339
288Q351 266 362 239T386 191Q399 171 405 155T422 119Q424 114 427 111T433 102L442 84Q446 75 451 67T462 49Q462 44 463 41T464 32Q457 20 455 20T449 18Q431 11 426 -8Q421 -10 416 -11T411 -19Q400 -26 392 -20Q387 -25 383 -31T372 -41Q364 -36 361 -29T351
-16Q350 -9 347 -4T343 7Q341 10 338 18T330 34T322 48T316 57Q308 73 303 89T289 122Q277 149 265 175T241 228Q236 227 230 218T219 196T210 173T205 155Q200 148 198 142T191 130Q186 113 179 98T164 66Q164 63 163 61T162 55Q151 37 140 19T120 -20Q117 -23
113 -26T104 -29Q97 -29 91 -24T80 -15Q62 -8 57 -1T37 6Q32 13 30 12T25 11Q17 14 15 18T11 26Q11 36 10 39Q11 43 12 46T15 53Q26 67 31 82T48 110Q51 119 56 127T63 145Q70 154 75 163T83 183Q85 185 86 188T89 193Q92 202 96 210T102 228Q104 229 110 240T122
265T134 291T142 308Q149 322 156 332T168 358Q165 364 164 370T157 381Q157 392 150 402T141 424Q133 437 129 452T119 482Q118 486 116 490T112 498Q103 515 95 530T78 562Q73 572 65 585T52 609Q44 628 37 646T22 684Q22 692 19 701T16 718Q22 724 25 726T31
731Q39 731 46 738Q56 739 66 741T85 750Q95 750 101 753T115 757Q123 755 125 753T130 749Q159 684 188 619T246 488Z" />
<glyph unicode="y" glyph-name="y" horiz-adv-x="463" d="M473 708Q462 688 448 661T426 614Q423 607 421 601T415 587Q410 572 403 559T389 530Q380 510 371 490T352 447Q342 427 337 413T325 383T315 354T307 327Q298 311 292 303Q290 285 288 267T286 230Q286
221 287 213T290 195Q291 182 291 170T291 144Q292 119 293 95T296 44Q297 26 295 14T293 -12Q290 -14 287 -15T280 -18Q269 -18 266 -18T259 -19Q250 -13 249 -13T247 -14Q235 -10 234 -8T230 -4Q219 -4 212 -7Q209 -5 207 -3T202 1Q193 2 187 3T177 7Q174 15
171 21T167 37Q167 45 169 52T172 67Q172 72 172 76T171 85Q171 90 173 98Q170 121 170 146T171 195Q171 218 167 238Q168 251 167 256T166 268Q166 273 167 278T168 289Q168 290 167 299T163 319T159 339T157 351Q147 369 142 385T131 412Q127 420 123 428T116
445Q114 450 113 456T109 467Q105 475 102 484T93 500Q89 509 86 516T82 531Q79 543 73 552T61 572Q58 578 57 583T53 593Q51 597 48 603T40 612Q38 621 33 628T26 644Q21 651 15 658Q11 673 4 685T-9 712Q-5 733 14 738Q24 750 26 751T35 752Q41 757 47 760T61
762Q62 766 66 769T75 772Q81 772 85 766T95 757Q103 743 111 730T126 703Q133 689 138 675T155 648Q160 628 170 611T188 573Q193 561 199 550T211 525Q214 519 216 513T220 501Q222 496 224 488T229 475Q236 482 241 493Q248 507 255 519T269 546Q277 559 280
573T289 601Q291 606 293 611T298 622Q301 628 303 634T307 646Q314 665 322 683T340 721Q341 724 344 730T352 742T361 754T368 761Q370 763 374 763T382 765Q391 765 395 760Q407 755 413 753T422 744Q437 734 444 733T456 724Q467 717 469 714T473 708Z" />
<glyph unicode="z" glyph-name="z" horiz-adv-x="440" d="M372 763Q373 760 381 756T392 752Q406 754 408 752T414 746Q418 748 420 750T428 753Q433 750 434 745T439 734Q438 721 439 718T440 710Q440 695 431 678T418 645Q413 640 412 634T406 623Q403 613 397
606T389 588Q388 587 385 581T377 568T370 554T365 545Q362 540 361 536T356 527Q354 521 350 513T340 495T330 478T326 465Q319 457 318 447Q291 396 270 343T225 237Q223 228 223 226T220 223Q217 216 213 210T207 196Q203 185 201 176T191 156Q190 150 187 145T185
133Q188 130 194 130T205 129Q211 129 217 129T229 130Q235 130 240 130T250 129H275Q279 129 282 129T289 128Q300 128 312 129T337 130Q344 130 352 130T368 129Q371 128 372 126T379 126Q388 117 390 115T394 111Q394 107 394 105T395 99Q395 88 397 84Q391
75 393 71L388 60Q388 55 386 50T386 39Q381 31 380 22T373 4Q365 1 357 1T341 0Q336 2 327 2Q319 2 312 1T296 0Q293 0 290 0T284 1Q273 -1 273 0T270 1Q259 1 248 1T226 0Q222 0 219 -1T213 -2Q210 -2 207 -1T201 0Q196 0 190 -1T178 -2Q175 -2 172 -2T166 -1Q161
-1 156 -3T145 -3L131 -5Q115 -5 100 -7T68 -9Q59 -9 56 -8Q51 -4 44 -3T31 1Q30 9 24 13T13 22Q14 34 11 37Q12 53 5 58Q6 67 12 75T19 92Q27 100 29 104T31 113Q37 120 42 130T53 153T62 176T69 197Q77 208 81 220T90 244Q98 258 100 264T108 276Q109 280 113
291T123 316T133 339T141 353Q142 358 145 363T148 373Q158 386 164 405T177 438Q184 453 192 467T208 497Q239 557 270 618Q268 623 262 623T251 626Q243 624 236 625T221 626Q202 630 190 630T165 629Q159 629 153 630T140 631Q125 631 110 629T80 624Q71 626
62 626T44 628Q40 643 42 645Q40 648 38 650T33 656Q34 665 32 667T27 675Q27 682 27 688T28 702Q26 706 23 708T18 714Q19 719 19 722T19 730Q25 735 32 737T43 746Q56 750 69 751T96 752Q110 752 122 752T147 750Q156 750 163 748T179 744Q184 743 189 743T199
744Q216 744 233 744T268 743Q282 743 294 743T318 745Q322 749 324 753T328 761Q337 761 340 761T345 760L357 755Q361 755 366 756T372 763Z" />
<glyph unicode="{" glyph-name="braceleft" horiz-adv-x="483" d="M402 650Q382 651 371 649T348 647Q338 647 329 650Q325 649 321 649T313 646Q299 647 294 646T282 645Q274 645 267 647T253 649Q250 649 248 649T242 647Q247 605 251 563T261 478Q263 463 266
438T269 398Q269 390 268 382T267 365Q267 357 274 353T284 342Q284 327 274 318T257 294Q249 287 240 280T225 263Q228 255 236 249T250 237Q251 235 255 231T263 222T270 214T274 209Q287 199 295 189T304 169Q304 158 299 147T285 127Q281 116 278 104T272 80Q270
75 268 70T264 58Q261 47 259 36T254 14Q247 -8 240 -30T226 -75Q243 -77 259 -77T293 -76Q311 -76 329 -76T367 -80Q378 -87 385 -96T401 -115Q401 -122 400 -125T398 -134Q399 -158 392 -169T383 -196Q379 -198 378 -194T374 -189Q369 -193 362 -193Q356 -193
350 -191T339 -189H285Q278 -189 272 -190T259 -191Q247 -189 243 -189T234 -190Q223 -190 211 -188T187 -186Q183 -186 179 -187T170 -189Q164 -189 155 -188T143 -181Q143 -176 145 -170Q134 -165 133 -165T129 -166Q119 -162 112 -159T98 -156Q93 -151 92 -151T90
-140Q90 -127 94 -116Q93 -104 94 -100T95 -90Q105 -71 109 -58T117 -33L156 87Q161 103 165 117T170 147Q161 159 151 169T130 191Q128 198 125 202T116 211Q115 216 112 219T108 227Q100 228 94 236Q86 247 82 253T72 265Q75 272 78 278T84 292Q90 300 96 308T109
325Q120 340 135 351T163 380Q164 402 162 418T159 451Q158 459 158 466T157 481Q155 501 153 521T147 562Q145 604 138 636T130 701Q130 706 130 711T132 722Q138 724 139 732T145 745Q153 749 163 749T180 754Q192 753 202 756T225 759Q242 759 259 756T294 753Q312
753 329 760Q342 760 349 759T364 757Q369 755 371 760T377 765Q380 754 382 750T386 739T389 728T390 721Q391 709 393 707T396 699Q408 693 411 688Q412 663 402 650Z" />
<glyph unicode="|" glyph-name="bar" horiz-adv-x="282" d="M95 767Q100 763 109 763Q124 761 131 761T143 756Q154 755 163 753T183 750Q188 747 193 743T201 734V722Q201 711 202 700T204 677Q205 666 204 655T203 632Q203 608 204 584T205 536Q205 521 203
507T201 478Q201 463 202 448T203 418Q203 413 203 407T202 396Q202 381 203 366T204 336Q204 315 203 295T202 253Q202 250 203 248T204 242Q204 224 203 207T202 171Q202 145 203 120T206 70Q207 58 208 47T210 24Q210 20 208 17T204 10Q201 0 200 -4T183 -5Q174
-9 164 -10T143 -15Q138 -13 132 -13T121 -10Q113 -15 103 -15Q99 -15 96 -15T89 -13Q85 -7 84 0T81 15Q81 39 78 63T74 111Q74 116 74 120T75 129Q75 133 74 136T73 145Q73 155 74 164T76 182Q76 193 75 202T74 222Q74 230 74 237T75 253Q75 261 75 267T73 282Q74
283 74 292T75 312T75 333T75 346V422Q75 436 74 449T72 476Q72 491 74 505T76 534V586V670Q76 672 76 680T75 698T73 716T72 726Q74 736 75 741T79 750T84 757T95 767Z" />
<glyph unicode="}" glyph-name="braceright" horiz-adv-x="483" d="M81 650Q72 663 72 681Q77 693 78 693Q87 704 89 706T93 713Q92 723 93 728T96 739T100 749T104 756Q109 765 111 760T117 755Q127 758 133 759T148 760Q169 753 189 753Q207 753 224 756T258
759Q269 759 280 756T303 754Q310 748 320 748T338 745Q341 740 343 732T351 722Q352 717 352 712T352 701Q352 668 345 636T336 571Q330 524 327 481Q326 473 326 466T325 451Q323 434 321 418T319 385Q332 363 347 352T375 325L399 292Q401 285 405 279T412 265Q406
260 401 254T388 245Q383 228 376 227Q375 222 372 219T368 211Q363 206 359 202T353 191Q343 180 333 170T313 147Q314 132 318 118T328 87Q346 27 367 -33Q371 -45 374 -58T383 -82Q388 -95 389 -99T390 -110Q393 -127 393 -140Q393 -151 392 -151T384 -156Q378
-155 372 -158T357 -163Q341 -165 338 -170L340 -181Q336 -187 328 -188T313 -189Q308 -189 304 -188T296 -186Q285 -186 273 -188T249 -190Q245 -190 241 -190T232 -189Q218 -191 212 -190T198 -189H144Q138 -189 133 -191T121 -193L110 -189Q107 -190 106 -194T102
-198Q99 -180 92 -169T84 -143Q85 -129 84 -126T82 -118Q90 -105 98 -96T117 -80Q135 -77 153 -77T190 -76Q207 -76 223 -76T256 -75Q251 -52 244 -30T229 14Q226 25 224 36T218 58Q217 64 215 69T211 80Q208 91 206 103T199 127Q190 135 185 146T179 169Q179 179
187 189T201 207Q210 210 213 213T219 221T226 230T232 237Q239 243 247 249T258 263Q252 273 244 280T225 294Q219 308 210 317T200 342Q202 349 209 353T216 365Q216 373 215 381T214 398Q214 413 217 438T222 478Q227 521 231 563T241 647Q235 649 230 649Q222
649 216 647T202 645Q196 645 190 646T177 647Q165 648 155 650Q144 647 135 647Q124 647 113 649T90 651L81 650Z" />
<glyph unicode="~" glyph-name="asciitilde" horiz-adv-x="695" d="M265 307Q254 317 251 318T243 321Q232 315 225 309T209 296Q197 287 184 279T159 260Q150 252 141 250Q131 259 126 263T115 273Q114 278 114 280T110 286Q100 289 96 291T90 305Q82 307 80
308T72 316Q95 339 112 352T147 377Q156 382 162 388T177 399Q186 406 195 412T212 426Q217 428 220 432T229 438Q229 443 230 444T234 451Q244 453 251 453Q256 448 260 444T270 435Q282 431 292 421Q306 415 317 405T341 387Q347 381 355 377T370 366Q379 361
387 356T404 345Q415 339 424 334T443 322Q450 327 456 331T466 342Q467 342 475 349T495 366T516 383T530 395Q540 403 543 405T549 408Q558 399 564 396T575 392Q580 388 584 385T594 378Q602 368 603 366T607 359Q614 357 616 355T624 348Q606 321 582 302T538
262Q527 251 515 239T489 219Q478 209 470 206T455 194L444 190Q431 203 416 204Q413 207 410 209T402 213Q396 220 389 225T376 238Q368 241 360 246T344 254Q334 260 329 264T317 271Q305 282 292 289T265 307Z" />
<glyph unicode="&#xa0;" glyph-name="uni00A0" horiz-adv-x="358" />
<glyph unicode="&#xa1;" glyph-name="exclamdown" horiz-adv-x="275" d="M210 269Q210 258 211 247T212 225Q212 170 210 115T206 3Q198 -4 195 -4T190 -6Q188 -4 184 -3T178 -1Q173 -1 172 -4T164 -8Q161 -8 158 -7T153 -3Q145 -4 143 -4T140 -7Q128 -5 126 -1T122
3Q113 -2 112 -1T108 0Q101 1 98 1T93 3Q91 7 91 17T89 32Q91 43 91 54T91 78Q91 83 92 87T93 96Q93 119 93 141T94 186Q94 196 93 204T92 222Q92 236 92 248T92 273Q91 284 91 286T92 290Q92 295 92 300T91 310Q91 315 91 319T92 328Q92 335 91 341T89 354Q89
358 90 362T92 370Q93 375 93 380T93 391Q93 408 93 425T94 460Q94 469 94 480T99 500Q104 500 107 498T115 496Q120 496 121 500T128 505Q135 502 139 505T145 510Q153 508 160 506T175 501Q180 502 181 505T186 510Q190 511 195 512T206 513Q212 479 212 445T211
376Q211 367 211 358T212 339Q211 325 211 320T212 310Q212 300 211 290T210 269ZM62 685Q62 689 62 692T61 701Q64 706 68 709T78 714Q91 713 91 723Q104 725 105 723T110 721Q114 721 118 725T125 732Q128 731 131 731T138 730Q146 739 151 740T161 743Q166 738
172 727T183 714Q191 695 198 678T214 642Q213 635 208 632T195 628Q189 626 187 621T179 616Q172 610 164 609T150 602Q137 606 131 603T121 597L108 598Q104 603 97 615T82 641T68 667T62 685Z" />
<glyph unicode="&#xa2;" glyph-name="cent" horiz-adv-x="362" d="M178 311Q180 307 191 296T217 273T244 249T263 231Q272 222 281 213T300 194Q307 183 317 173Q325 167 330 162T340 147Q342 136 340 132Q334 131 334 129T331 125Q323 120 306 119T279 114Q274
112 273 110T266 108Q263 108 260 109T253 111Q247 117 241 123T228 136Q220 143 213 149T198 163Q198 137 199 116T201 74Q196 68 191 68T181 68Q176 68 171 69T161 70Q154 70 148 71T136 73Q128 78 128 80T123 87L121 138Q121 153 121 177T123 214Q125 217 126
220T130 226Q119 236 110 245T92 266Q87 273 78 282T57 302T36 320T18 333Q17 338 14 340T6 344Q3 349 2 359T0 376Q0 386 2 392T10 407Q16 415 24 421T38 435Q40 437 40 440T43 445Q46 450 51 453T61 461Q78 478 93 495T126 527Q115 530 115 534Q115 541 116 554T117
583T118 610T117 628Q116 638 116 643T116 653V670Q118 673 121 673T128 674Q132 679 144 681T163 684Q165 686 168 686T173 689Q180 688 183 687T187 685T188 681T193 674Q194 667 194 656T195 634T195 611T195 593Q200 597 209 606T228 623T249 638T266 645Q275
645 278 637T290 629Q297 625 299 620T304 610Q322 607 330 590Q326 582 320 577T308 565Q303 563 299 559T289 552Q278 541 268 532T247 512Q241 507 235 503T223 493Q205 472 191 462T166 438Q162 433 159 429T152 419Q143 411 135 404T119 388Q117 385 111 383T104
377Q104 375 114 365T138 344T163 323T178 311Z" />
<glyph unicode="&#xa3;" glyph-name="sterling" horiz-adv-x="535" d="M520 254Q524 242 524 241T523 237Q513 222 503 208T479 180Q475 175 469 168T456 154T443 139T434 127Q426 119 420 109T406 90Q402 87 400 87T395 81Q391 80 389 79T383 77Q376 78 371 82Q363
76 356 76Q341 84 334 89T321 102Q320 102 308 112T282 134T254 156T239 169Q237 171 229 179T219 187Q209 196 200 203T185 214Q166 196 149 177T115 137Q112 133 106 129T95 124Q87 124 83 130Q78 132 74 136T65 143Q58 151 55 151T50 153Q46 158 43 163T36 174Q41
187 44 189Q46 194 58 209T85 241T113 271T131 287L143 302Q145 315 148 327T153 353Q145 354 138 354T124 354Q118 354 112 353T100 352H78Q71 352 64 352T51 353Q43 353 37 354T22 356Q15 362 15 371Q11 390 11 409Q10 419 10 424Q10 430 13 436Q20 439 26 441T38
445Q51 443 64 444T91 446Q102 446 114 446T139 447Q144 447 150 447T162 446Q170 467 172 486T179 526Q182 542 184 556T188 587Q190 609 196 632T202 677Q205 682 207 684T213 689Q224 688 227 687Q242 693 254 693Q261 693 267 692T281 691Q285 691 297 691T321
691T345 689T359 687Q368 687 372 687T379 686T384 681T392 674Q390 666 391 664T393 657L391 644Q390 633 390 630T389 621Q387 611 386 608T383 601Q376 595 362 595Q353 595 344 596T325 599Q315 600 306 600T288 600Q282 595 281 590T280 579Q277 538 269 509T261
447Q274 445 278 445T287 445Q296 445 305 445T324 446Q333 446 341 445T358 444Q361 444 365 444T372 445L385 443Q393 441 396 439T406 429Q406 423 405 420T406 415Q403 402 403 399T401 394Q397 376 394 364T369 351Q363 351 358 351T347 353Q335 352 327 352T309
353Q301 353 294 352T279 352Q277 351 267 351T254 351H243Q240 337 238 323T234 295Q241 287 250 284Q260 271 264 269T273 263Q280 258 285 253T295 243Q301 237 310 229T330 213T351 197T368 184Q375 192 389 210T419 247T449 282T470 301Q483 299 488 290Q498
284 501 278T509 269Q515 265 521 265Q521 256 520 254Z" />
<glyph unicode="&#xa4;" glyph-name="currency" horiz-adv-x="580" d="M287 559Q289 552 290 552T292 549Q297 549 299 547T306 544Q317 537 326 528T346 511Q357 502 364 495T379 483Q389 490 396 499T415 515Q417 517 419 519T422 524Q427 527 430 531T437 539Q441
541 443 543T449 547Q453 547 455 546T461 545Q463 543 465 541T472 538Q479 527 486 524Q491 517 497 512T505 504Q511 500 513 496T516 486Q516 480 511 476T502 465Q499 464 490 455T478 442Q460 429 449 415Q449 413 458 402T479 378T499 354T510 343Q510 339
512 337T515 332Q506 314 493 302Q483 295 483 291Q476 283 471 274T461 257Q457 252 454 249T447 241Q453 232 459 225T474 212Q483 202 488 194T501 181Q509 169 520 161T539 139Q536 134 533 130T530 120Q527 117 523 111Q514 107 512 104T505 99Q504 92 500
88T493 77Q484 76 476 78Q471 80 468 83T459 89Q445 105 430 118T402 148Q397 150 396 154T389 160Q380 152 376 147T368 134Q358 126 352 116T335 98Q329 90 326 87T318 80Q311 81 309 77T301 73Q293 82 287 83T276 88Q263 92 257 94Q234 108 222 128T197 162Q192
161 190 159T185 155Q161 122 129 92Q122 91 120 87T109 83Q105 83 103 87T96 90Q94 92 92 94T88 98Q81 101 75 106T67 119Q54 120 47 133Q47 139 49 142T53 150Q60 157 66 164T81 179Q87 188 94 195T108 210T122 226T130 237Q130 239 123 247T114 257Q113 259
109 263T101 272T92 281T86 287Q83 293 79 298T71 308Q71 311 70 314T68 319Q70 334 73 337T76 348Q87 356 94 367T113 386Q117 397 112 403T101 416T89 429T81 437Q79 442 76 444T71 451Q65 456 60 461T50 471Q50 477 47 480T41 489Q42 493 44 495T46 500Q50 502
54 503T63 505Q69 511 70 514Q73 515 76 516T82 518Q90 526 91 527T95 529Q103 527 103 530T106 535Q133 525 147 505T179 470Q188 477 194 486T209 502Q209 503 214 510T227 525T239 541T246 548Q252 552 253 554T255 558Q260 558 262 560T270 563Q277 563 287
559ZM313 418Q303 427 298 430T287 439Q263 415 247 396T214 357Q206 349 199 340T185 322Q188 317 192 314T201 305Q204 301 206 298T212 290Q216 286 220 282T229 273Q237 264 245 256T262 238Q268 230 277 218T294 201Q299 205 308 218T325 238Q328 246 334
253T345 267Q356 282 370 297T393 330Q382 344 367 362T340 393Q333 399 327 405T313 418Z" />
<glyph unicode="&#xa5;" glyph-name="yen" horiz-adv-x="471" d="M401 655Q409 655 414 648T420 634Q420 627 415 617T403 595T391 575T385 561Q373 547 369 536T357 515Q348 501 341 486T326 457Q315 440 306 424T289 391H300Q308 391 315 391T331 390Q338 390
347 390T366 390T384 386T398 377Q407 375 407 366V353Q406 349 406 346T404 339Q406 333 405 327T403 314Q403 305 397 300T385 294Q356 297 338 297T302 298H273Q272 274 273 262T274 237Q295 236 316 236T357 234Q366 234 380 232T398 221Q404 210 402 204L399
157Q396 152 393 148T386 139Q365 140 344 141T302 143Q298 143 295 143T288 142Q274 143 271 142Q271 139 271 137T270 131Q267 116 268 100T266 69Q264 61 263 54T254 45Q246 50 243 52Q234 49 232 48T227 46Q216 48 214 48T210 47Q198 49 196 49T190 48Q181
55 181 60T178 70Q179 75 179 80T180 90Q180 104 181 116T181 142Q169 146 166 146T157 146Q140 146 125 145T93 143Q85 143 70 145T48 153L45 165Q43 175 39 179T36 198Q35 206 31 212Q31 228 35 229T45 233Q52 237 56 237H77Q96 237 115 238T155 240Q163 240
170 240T185 240Q185 254 185 266T184 291V302Q174 303 167 303T152 305Q140 304 135 304T124 303Q113 303 102 302T79 301Q61 301 48 310Q47 316 47 321T41 330Q41 334 40 337T39 343Q39 351 37 359T35 375Q38 386 46 388L60 393Q79 395 90 396T113 397Q116 397
118 397T124 397Q131 397 138 397T153 398Q149 420 137 442T113 486Q107 501 98 513Q94 518 88 528T75 549T63 570T55 586Q50 597 45 605T35 625Q35 630 34 634T31 643Q31 653 35 656T43 663Q54 664 57 664L71 670Q82 675 85 676T92 680Q101 681 102 679T109 674Q111
669 113 664T120 655Q124 647 129 640T138 624Q158 582 183 545T227 466Q241 489 253 511T279 557Q284 565 287 573T296 590Q304 603 309 614T322 639Q325 646 329 651T336 665Q340 667 341 669T346 675Q350 675 354 676T362 678Q376 673 379 671T388 669Q393 661
395 661T401 655Z" />
<glyph unicode="&#xa6;" glyph-name="brokenbar" horiz-adv-x="269" d="M81 762Q86 762 89 760T96 758Q104 759 110 760T118 757Q129 758 130 756T133 753Q145 754 148 753T152 750Q167 751 175 751T190 743Q193 725 194 707T195 671Q195 642 194 614T193 556Q193
550 193 533T194 498T195 464T198 443Q193 437 193 430T187 415Q176 413 175 413T172 414Q162 412 152 409T131 406Q120 406 112 410Q107 409 103 407T94 402Q89 404 85 404T77 408Q70 427 69 448T66 489Q65 496 63 503T61 517Q61 523 61 531T65 545Q65 556 64
562T65 577Q62 622 63 660T65 736Q65 741 71 749T81 762ZM83 380Q85 379 89 378T96 377Q110 377 119 377T133 372Q136 373 138 373T144 372Q146 370 149 370T154 367Q164 370 165 370T168 369Q175 370 179 368T186 365Q188 361 190 359T194 354Q194 326 195 299T196
245Q196 210 193 177T190 109Q190 104 189 100T188 90Q188 77 189 65T190 40Q190 35 190 23T186 7Q181 6 179 7T174 8Q167 8 164 5T151 3Q147 2 144 -1T138 -4Q131 -4 125 -3T111 -1Q107 -1 105 -3T98 -6Q95 -6 89 -6T79 -3Q77 2 75 7T68 16Q63 34 62 52T61 88Q61
114 63 140T65 193Q65 232 64 271T62 350Q65 353 65 357T68 366Q71 370 75 373T83 380Z" />
<glyph unicode="&#xa7;" glyph-name="section" horiz-adv-x="468" d="M249 627Q257 617 267 610T289 595T310 581T330 563Q336 556 341 550T354 537Q362 530 370 525T385 514Q407 496 430 480T468 440Q469 433 462 424Q463 414 460 410T455 398Q447 393 441 389T434
375Q427 374 426 370T424 362Q419 356 414 353Q414 347 411 344T406 336Q400 335 392 324T374 299T358 272T347 254Q344 249 341 246T334 237Q327 227 321 218T307 199Q309 195 309 191T313 183Q323 181 329 174T340 164Q342 158 348 155T357 145Q367 139 371 134T381
125Q382 115 381 113T380 108Q370 97 362 84T342 60Q336 51 335 50T331 46Q325 35 318 28T302 10Q296 2 281 -18T249 -60T215 -98T188 -115Q178 -115 176 -104Q165 -101 155 -96T140 -80Q129 -74 129 -72T128 -67Q120 -64 112 -60T100 -47Q102 -41 105 -36T110
-25Q122 -9 133 6T158 36Q160 43 164 48T172 59Q188 82 200 98T221 132Q219 137 215 139T205 143Q199 146 193 151T180 161Q176 163 173 165T166 169Q160 172 156 177T143 185Q107 210 80 236T24 288Q22 300 23 303T27 308Q21 312 17 317T10 328Q11 341 18 353Q24
355 27 360T35 367Q49 387 59 399T80 424Q85 429 89 435T98 447Q104 455 110 460T121 473Q136 492 146 503T166 525Q161 535 153 542T137 557Q134 558 131 559T125 561Q121 569 114 572T98 578Q90 586 83 589T71 601Q72 605 78 613Q89 642 105 659T135 695Q160
725 186 754T238 813L246 824Q248 828 251 831T257 839Q260 840 263 841T269 845Q278 841 279 841T281 842Q282 840 285 837T291 831Q302 825 309 820T322 807Q326 805 330 804T336 797Q346 795 350 785Q355 784 358 781T364 773Q355 750 344 738T324 712Q318 708
307 696T283 671T262 645T249 627ZM258 451Q245 439 234 426T213 398Q209 396 207 394T202 390Q197 382 191 376T179 364Q179 350 172 345T162 331Q167 326 175 319T191 304T208 291T223 282Q233 292 239 304T255 327L263 335Q266 341 267 342T271 345Q275 350
279 356T288 368Q291 379 297 386T311 402Q308 406 301 413T285 428T270 442T258 451Z" />
<glyph unicode="&#xa8;" glyph-name="dieresis" horiz-adv-x="420" d="M138 764Q144 754 146 753T151 749Q158 746 164 742Q170 735 170 734T169 730Q180 725 180 724T180 722Q184 713 183 706T179 697Q178 696 169 688T149 670T128 652T118 644Q111 643 105 645Q103
648 103 653T97 658Q95 661 94 664T91 670Q85 674 82 677Q76 689 75 691T72 695Q87 713 96 722T118 739Q120 743 122 745T126 753Q130 755 131 758T138 764ZM302 764Q308 754 310 753T314 749Q322 746 328 742Q334 735 334 734T333 730Q344 725 344 724T344 722Q348
713 347 706T343 697Q342 696 333 688T313 670T292 652T282 644Q273 643 269 645Q267 648 267 653T261 658Q259 661 258 664T255 670Q249 674 246 677Q240 689 239 691T236 695Q251 713 260 722T282 739Q284 743 286 745T290 753Q294 755 295 758T302 764Z" />
<glyph unicode="&#xa9;" glyph-name="copyright" horiz-adv-x="534" d="M518 404Q521 393 519 390T514 383Q507 378 499 366T485 346Q475 332 465 319T444 291Q439 285 435 278T425 264Q408 244 393 223T361 180Q356 174 350 168T339 155Q334 148 331 140T322
127Q316 122 313 117T306 105Q296 94 292 94Q282 93 279 96Q272 92 264 88Q260 90 257 91T250 96Q238 106 232 114T221 130Q216 138 209 145T197 160Q195 165 191 168T184 175Q177 183 168 194T154 214Q149 219 145 224T137 234Q129 245 121 255T105 276Q94 290
84 302T63 328Q59 334 52 342T38 358T24 374T14 387Q10 396 11 404Q15 413 16 418Q23 426 32 438T52 464T71 489T80 500Q85 505 89 510T98 521Q104 533 106 534T112 538Q114 540 115 543T118 549Q119 549 124 556T136 571T148 586T153 593Q163 604 171 617T191
641Q196 649 202 655T214 671Q215 671 219 675T227 684T234 693T239 700Q252 701 257 701T266 697Q271 698 273 698T279 699Q295 703 297 701T302 697Q302 696 305 692T313 683T321 674T327 667Q334 656 341 646T355 624Q361 615 366 608T376 592Q382 584 386 576T397
560Q404 549 412 541T426 524Q468 466 515 411L518 404ZM258 607Q255 601 251 597T244 585Q242 584 230 570T205 537T179 504T166 485Q165 484 159 478T146 463T134 447T128 439Q122 432 112 420T96 399Q101 393 106 388T117 378Q128 368 135 357T154 334Q159 328
163 321T174 308Q179 303 184 297T195 285Q214 261 232 236T271 188Q272 190 279 200T288 211Q296 216 300 224T311 240Q323 257 333 269T354 295Q374 321 393 345T431 396Q429 398 424 403T418 412Q416 414 413 418T409 424Q406 428 399 438T384 458T369 477T358
489Q357 490 354 494T348 502T341 510T338 515Q336 518 330 524T322 535Q318 538 311 548T296 570T281 593T271 610Q261 610 261 609T258 607ZM290 520Q300 511 303 503Q300 498 289 482T265 447T243 413T233 394Q233 392 236 387T245 376T254 365T260 359Q260
358 266 350T279 332T292 313T299 303Q301 301 307 296T314 288Q309 279 302 276T288 269T273 264T262 262Q245 281 232 297T207 330Q198 342 190 356T170 380Q163 390 163 392Q163 397 176 419T207 465T239 509T260 529Q266 529 275 524T290 520Z" />
<glyph unicode="&#xaa;" glyph-name="ordfeminine" horiz-adv-x="445" d="M154 390Q153 388 152 383T148 372T143 360T140 351Q132 328 127 310T117 275Q114 274 111 273T103 271Q90 266 81 264T63 255Q52 260 49 260T44 264Q38 262 33 259T20 253Q25 259 30 267T37
285Q38 290 40 300T45 322T51 344T57 359Q58 375 66 390T79 419Q90 448 96 477T112 536Q115 546 116 556T122 575Q121 581 123 590T130 609T137 628T142 639Q148 656 151 673T160 708Q161 711 162 713T165 718Q167 726 169 736T174 755Q176 760 182 763T194 770Q211
769 222 778Q225 777 228 776T236 775Q250 762 255 747T266 715Q269 703 274 687Q285 670 290 654Q298 644 299 631T309 608Q310 600 313 594T318 579Q321 576 324 569T329 555T334 540T338 528Q343 514 346 499T355 469Q357 462 361 455T368 440Q370 432 373 425T379
409Q382 395 386 381Q388 376 390 373T394 364Q396 357 396 353T401 343Q400 336 401 334T404 330Q408 315 411 307T415 289Q415 278 403 269T381 259Q373 257 372 255T369 250Q357 250 354 252T344 246Q339 251 334 256T325 268Q325 296 315 319Q308 336 303 353T292
388Q291 391 290 394T288 400Q286 395 285 392T279 385Q272 378 264 372Q265 360 261 355T251 345Q236 344 232 346T217 349Q214 349 212 349T206 351Q197 361 188 366T174 373Q171 376 165 382T154 390ZM167 422L158 411L164 426Q168 429 172 430T180 435Q186
442 198 452T219 462Q230 462 238 457T257 449Q259 444 266 442T278 437Q267 451 263 468T254 503Q245 531 233 560Q229 571 226 582T219 604Q215 594 210 578T203 550Q201 537 200 533T197 525Q188 499 182 474T167 422Z" />
<glyph unicode="&#xab;" glyph-name="guillemotleft" horiz-adv-x="490" d="M218 445Q229 434 233 433Q238 427 239 424T243 419Q252 413 260 402Q256 397 251 395T240 388Q232 382 224 372T207 354Q193 342 178 331T150 305Q155 296 164 290T176 273Q179 267
186 260T202 245T217 231T226 220Q235 213 242 207T258 196Q254 185 249 174T233 162Q231 153 228 149T223 143Q217 140 217 133T207 125Q198 125 181 137T145 165T112 196T90 220Q78 227 73 238T56 256Q55 259 53 261T50 268Q39 281 33 295Q31 297 28 298T22 302Q22
309 25 310T31 315Q62 348 92 374T152 428Q160 435 172 445T191 463Q209 467 212 460T218 445ZM423 445Q434 434 438 433Q442 427 443 424T447 419Q457 413 465 402Q461 397 455 395T444 388Q436 382 428 372T412 354Q398 342 383 331T354 305Q359 296 368 290T381
273Q384 267 391 260T407 245T422 231T431 220Q439 213 446 207T463 196Q459 185 454 174T438 162Q436 153 433 149T428 143Q422 140 422 133T412 125Q403 125 386 137T350 165T317 196T295 220Q283 227 278 238T261 256Q260 259 258 261T255 268Q244 281 238 295Q235
297 232 298T226 302Q227 309 230 310T236 315Q267 348 296 374T356 428Q364 435 377 445T396 463Q414 467 417 460T423 445Z" />
<glyph unicode="&#xac;" glyph-name="logicalnot" horiz-adv-x="527" d="M465 393Q467 391 469 385T476 379Q480 383 483 382T489 379Q494 383 496 380T505 377Q509 369 511 357T514 332T516 307T517 285Q517 266 516 247T515 209Q515 197 516 185T517 159Q517
154 517 149T515 138Q510 130 506 124T498 116Q494 118 490 120T480 122Q469 117 469 120T465 123Q463 121 460 120T455 116Q446 119 444 118T440 117Q435 117 433 120T426 125Q424 131 422 141T418 162T415 183T414 200Q414 204 414 207T415 214Q415 226 412 240Q415
250 415 263Q415 269 415 275T413 286Q403 282 403 285T400 291Q381 291 366 291T337 290Q332 290 326 289T314 286Q301 285 289 285T263 282Q258 283 253 283T242 283Q231 283 222 283T201 282Q195 282 189 283T176 284Q168 284 164 286Q157 285 155 285T150 286Q135
286 120 286T90 285Q82 285 75 284T58 282Q44 286 36 286T23 291Q22 297 22 306T14 319Q15 329 14 332T10 340Q11 346 11 352T12 365Q20 378 25 378T33 382Q52 385 63 386T94 388Q103 388 113 389T132 390Q137 390 142 389T152 388Q162 388 166 387Q194 387 211
387T247 388Q277 388 307 391T367 396Q381 397 396 397T426 398Q431 398 436 398T447 398Q452 396 456 395T465 393Z" />
<glyph unicode="&#xad;" glyph-name="sfthyphen" horiz-adv-x="451" d="M435 376Q440 366 440 363T440 358Q438 349 440 346L437 329Q435 320 439 316Q437 310 437 305T435 294Q417 293 409 294T392 295Q371 295 350 295T307 299Q263 301 227 301Q210 302 194
303T161 304Q140 306 124 306T94 307Q86 307 78 306T59 305Q49 305 40 305T19 306Q17 313 18 317T19 327Q15 334 14 341T13 355Q13 360 13 366T15 377Q13 380 12 383T10 388Q12 396 13 399Q16 401 19 402T25 407Q44 410 64 410T103 409Q119 409 134 408T165 406Q184
404 203 404T243 404Q261 404 279 402T315 400Q373 400 433 394Q435 382 435 376Z" />
<glyph unicode="&#xae;" glyph-name="registered" horiz-adv-x="534" d="M518 404Q521 393 519 390T514 383Q507 378 499 366T485 346Q475 332 465 319T444 291Q439 285 435 278T425 264Q408 244 393 223T361 180Q356 174 350 168T339 155Q334 148 331 140T322
127Q316 122 313 117T306 105Q296 94 292 94Q282 93 279 96Q272 92 264 88Q260 90 257 91T250 96Q238 106 232 114T221 130Q216 138 209 145T197 160Q195 165 191 168T184 175Q177 183 168 194T154 214Q149 219 145 224T137 234Q129 245 121 255T105 276Q94 290
84 302T63 328Q59 334 52 342T38 358T24 374T14 387Q10 396 11 404Q15 413 16 418Q23 426 32 439T52 465T71 489T80 500Q85 505 89 510T98 521Q104 533 106 534T112 538Q114 540 115 543T118 549Q119 549 124 556T136 571T148 586T153 593Q163 604 171 617T191
641Q196 649 202 655T214 671Q215 671 219 675T227 684T234 693T239 700Q252 701 257 701T266 697Q271 698 273 698T279 699Q295 703 297 701T302 697Q302 696 305 692T313 683T321 674T327 667Q334 656 341 646T355 624Q361 615 366 608T376 592Q382 584 386 576T397
560Q404 549 412 541T426 524Q468 466 515 411L518 404ZM258 607Q255 601 251 597T244 585Q242 584 230 570T205 537T179 504T166 485Q165 484 159 478T146 463T134 447T128 439Q122 432 112 420T96 399Q101 393 106 388T117 378Q128 368 135 357T154 334Q159 328
163 321T174 308Q179 303 184 297T195 285Q214 261 232 236T271 188Q272 190 279 200T288 211Q296 216 300 224T311 240Q323 257 333 269T354 295Q374 321 393 345T431 396Q429 398 424 403T418 412Q416 414 413 418T409 424Q406 428 399 438T384 458T369 477T358
489Q357 490 354 494T348 502T341 510T338 515Q336 518 330 524T322 535Q318 538 311 548T296 570T281 593T271 610Q261 610 261 609T258 607ZM346 440Q341 429 327 415T305 390Q307 366 319 355T339 331Q342 326 346 319T356 307Q360 298 361 297Q359 294 357
293T353 289Q350 289 348 287T341 285Q333 279 331 278T326 275Q323 277 321 280T315 286Q304 300 297 310T281 330Q276 335 274 340T266 349Q260 345 255 340T245 331Q244 323 244 316T244 301Q244 296 244 291T243 281Q235 285 234 284T231 283Q223 280 221 279T215
280Q206 279 205 281T204 286Q202 295 202 299Q202 303 202 316T201 331Q200 338 200 345T201 359Q201 365 201 370T200 381Q200 386 200 389T201 395Q201 413 202 426T204 453Q204 468 203 484T200 515Q202 520 200 526Q205 528 207 528T211 527Q221 529 222 528Q231
531 237 531Q243 527 249 523T262 513T274 504T283 500Q292 496 297 491T310 482Q315 479 322 477T334 470Q338 466 340 465T346 462Q346 455 345 449T346 440ZM295 449Q292 451 289 452T283 457Q281 458 276 460T265 465T255 470T249 472Q247 465 247 459T248
445Q248 439 248 434T247 422Q245 418 245 409T244 395Q253 392 260 399T273 413T286 428T295 440V449Z" />
<glyph unicode="&#xaf;" glyph-name="overscore" horiz-adv-x="407" d="M283 770Q288 770 293 769T304 768Q308 768 311 767T319 767Q328 763 334 754Q333 749 333 746T334 739Q331 724 329 719T329 707Q327 704 325 701T318 695Q307 693 294 693T265 692T236
693T210 694Q185 694 161 693T112 692Q103 692 95 693T79 697Q77 699 78 702T78 708Q76 712 76 716T73 724Q73 729 73 733T76 742Q72 753 76 761Q82 765 109 766T169 768T233 769T278 768L283 770Z" />
<glyph unicode="&#xb0;" glyph-name="degree" horiz-adv-x="269" d="M231 732Q229 723 228 721T227 717Q237 720 239 720T243 720Q245 717 247 711T249 700Q249 674 247 648T242 596Q233 586 232 584T227 581Q225 576 225 570T221 561Q202 556 191 556T169 556Q159
556 149 555T128 553Q122 554 119 554T111 553Q104 553 100 551T88 550Q83 548 77 547T66 544Q56 546 45 552Q45 558 45 560T46 564Q43 570 36 575T27 587Q26 592 25 596T20 606Q25 622 28 641T31 676Q30 690 30 695T31 706Q35 714 35 718L51 721Q50 729 50 734Q50
741 54 745Q71 750 88 752T122 755Q135 755 148 755T175 756Q189 759 194 760T204 761L216 759Q220 759 222 754T226 746Q228 737 228 735T231 732ZM102 683Q98 675 98 665T93 647Q93 642 92 638T91 629Q91 624 94 618Q114 622 133 622T172 625Q175 639 175 654T175
684Q163 687 150 687Q138 687 127 686T102 683Z" />
<glyph unicode="&#xb2;" glyph-name="twosuperior" horiz-adv-x="347" d="M312 328Q313 323 316 316Q314 311 314 303T309 289Q308 281 306 274T302 258Q300 255 298 254T292 251Q285 251 279 250T265 249Q260 249 256 250T246 252Q239 252 233 252T220 253Q215
253 211 253T201 254Q185 254 170 255T137 257Q129 256 125 256T116 257Q108 257 101 256T87 255Q66 255 44 252Q40 254 36 256T31 264Q31 269 32 274T33 284Q33 296 33 304T33 317Q31 324 32 326T35 331Q34 338 37 345T49 352Q50 354 56 361T63 370Q70 382 75
389T85 403Q92 414 97 425T111 447Q116 455 121 462T132 476Q149 502 168 526T201 578Q197 586 190 591T178 603Q152 635 121 662T65 722Q63 727 60 730T57 736Q60 744 63 745T67 750Q69 754 73 764Q75 766 76 769T79 774Q80 776 81 780T84 784Q90 789 97 797T111
808Q116 801 123 800Q139 786 154 770T182 737Q187 731 194 726T208 714Q213 710 216 705T225 695Q239 680 256 663T287 630Q290 625 292 619T297 608Q307 598 309 594Q305 578 295 557T272 514T246 472T221 439Q210 425 202 411T183 382Q179 371 176 370Q174 363
170 359T165 347Q163 344 162 341T161 336Q173 333 186 333Q208 335 223 335T255 336Q265 334 270 334T281 336T292 338T301 339Q304 337 306 334T312 328Z" />
<glyph unicode="&#xb3;" glyph-name="threesuperior" horiz-adv-x="345" d="M268 403Q266 398 262 396T255 389Q252 387 250 384T244 377Q235 369 224 360T208 340Q198 332 193 328T184 316Q177 310 173 306T166 297Q160 291 156 288T147 280Q141 277 138 271Q123
255 111 251Q102 253 98 258T86 267Q84 269 83 273T80 279Q77 281 75 283T69 287Q62 288 60 291T57 296Q63 308 69 314T85 330Q99 341 111 354T136 381Q149 394 162 406T186 432Q181 437 176 442T164 452Q161 455 153 462T134 477T114 491T100 500Q98 505 93 507T84
514Q81 527 83 528T85 531Q80 544 84 548T88 557Q94 562 100 566T112 577Q115 579 117 582T122 588Q128 591 130 591T134 594Q144 605 155 615T176 636Q174 641 170 643T162 651Q157 654 154 657T145 665Q135 672 122 683T95 705T69 729T51 751Q59 762 61 765T66
773Q71 776 73 780T83 787Q87 797 89 800T94 805Q98 804 101 803T110 800Q118 789 128 781T150 764Q164 750 179 740T209 716Q223 702 238 691T264 665Q265 660 267 656T270 648V635Q278 629 279 628T280 624Q274 615 265 607T246 588T226 568T215 556Q211 551
206 548T199 539Q199 539 210 528T236 505T263 481T278 468Q279 466 281 463T283 458Q284 453 286 451T287 444Q290 441 291 438T294 432Q293 429 292 427T289 421Q283 418 279 413T268 403Z" />
<glyph unicode="&#xb4;" glyph-name="acute" horiz-adv-x="387" d="M252 765Q256 767 263 767Q271 767 278 765T293 760Q301 750 303 745T308 734T313 724T315 718Q297 696 281 684T248 658Q240 653 233 647T217 635Q211 631 200 622T177 604T154 587T139 577Q127
569 115 565Q102 573 98 574T90 579Q89 583 87 585T83 590Q76 596 74 600Q72 609 72 617T75 629Q109 655 142 680T210 732Q219 739 229 746T249 761L252 765Z" />
<glyph unicode="&#xb5;" glyph-name="mu" horiz-adv-x="389" d="M115 490Q117 488 119 485T123 478Q123 471 126 467Q127 450 128 435T129 402Q129 394 128 386T127 370V321Q127 313 128 306T129 292Q129 286 128 284T126 279Q133 275 141 279T155 283Q165 285
174 287T194 293T212 298T223 300Q235 305 247 307T270 314Q267 330 267 337Q265 347 264 359Q264 363 264 365T265 370Q265 377 262 383L263 399Q263 419 260 437Q262 443 262 449T261 462Q261 469 262 475T268 486Q282 486 285 485L297 492H308Q321 492 327 491T340
492Q350 487 351 483T355 477Q357 465 357 459T356 445Q356 438 356 432T357 418Q356 412 356 402T357 380T359 359T361 349Q361 330 362 320T364 301Q364 293 366 285T369 268Q363 258 361 258T357 257Q346 244 324 237T274 222T221 207T183 193Q171 187 155 185T124
176Q124 168 124 160T125 143Q125 139 124 136T123 128Q123 125 124 122T125 115Q125 110 123 105T123 95Q116 86 112 84Q97 86 95 81Q92 79 89 79T82 78Q70 74 69 75T63 76Q55 73 53 72T47 69Q39 79 36 81T31 88Q31 93 32 98T33 108Q33 113 33 119T32 131Q33 133
33 144T33 158V172Q31 177 32 179T33 183Q33 197 32 209T31 236Q31 251 32 266T34 297Q34 301 34 312T34 337T33 361T32 374Q34 380 34 394T35 415Q35 418 35 428T35 448T34 468T32 478Q35 492 40 493T49 495Q61 493 66 494T76 495Q78 495 82 494T89 493Q95 491
101 491T115 490Z" />
<glyph unicode="&#xb6;" glyph-name="paragraph" horiz-adv-x="672" d="M532 748Q534 735 538 734T543 728Q552 729 555 727T561 723Q566 725 567 729T574 736Q577 735 580 734T586 732Q592 686 595 650T603 575V535Q603 532 604 530T606 524Q606 498 607 473T609
422Q608 406 609 397T610 380Q610 356 610 332T609 285V205Q609 176 608 148T606 90Q605 83 604 77T602 66Q601 50 601 35T598 5Q593 0 589 0T578 -1Q573 -2 568 -4T558 -6Q555 -8 554 -10T549 -15Q541 -15 535 -16T523 -18Q516 -18 511 -14Q506 -19 500 -21T485
-25Q482 -21 482 -17T479 -8Q477 3 475 5T471 11Q472 23 471 26Q474 54 476 84T478 144Q478 158 479 172T480 202Q480 208 479 214T478 228Q478 241 479 253T480 279Q480 290 480 301T479 325Q479 335 480 344T481 364Q481 396 480 426T479 489Q478 504 478 519T478
550Q475 566 475 573T474 588Q473 603 472 618T470 648Q470 653 470 659T471 671Q471 680 470 689T469 709Q469 715 469 721T471 734Q475 737 475 740T484 743Q496 738 496 734T499 724Q504 726 507 729T515 732Q517 736 520 738T525 744L532 748ZM330 756Q334
752 340 751T351 749Q362 749 369 753Q372 751 374 748T380 744Q394 750 395 746T401 741L412 744Q417 741 419 735T423 721T424 706T426 692Q425 682 426 679Q424 664 424 659T424 649Q426 641 427 625T429 600Q428 592 428 589T431 584Q429 581 429 573Q429 563
432 557Q431 552 431 542Q431 528 432 515T433 488V472Q432 458 432 451T432 435Q432 428 431 422T430 409Q430 404 430 400T431 391Q430 389 430 384T429 373T428 360T428 352Q428 349 428 346T429 341Q429 334 428 328T427 315Q429 301 429 297T428 288Q428 284
428 281T429 273Q428 269 428 260Q428 255 429 251T430 242Q430 228 429 215T427 188Q427 183 427 179T428 169Q428 164 427 160T426 150Q426 135 426 125Q426 120 427 115T428 104Q426 91 426 83T427 66Q427 51 427 36T426 6Q423 0 422 -6T419 -18Q414 -19 403
-19Q399 -19 395 -24T384 -29Q378 -36 370 -36Q359 -41 359 -43T356 -45Q347 -39 347 -41T343 -45Q339 -47 334 -47T326 -50Q319 -44 318 -43T315 -39Q316 -32 316 -30T315 -26Q309 -18 309 -16Q313 7 314 21T316 50Q316 61 316 77T316 111T314 143T311 169Q309
173 307 175T305 183Q285 204 266 226T226 268Q207 283 192 295T163 324Q154 329 146 336T127 348Q122 355 116 359T102 370Q100 374 92 383T73 402T53 421T38 434Q34 446 34 451T31 461Q33 464 34 466T38 471Q39 484 46 496T55 511Q65 520 74 530T93 549Q98 554
103 557T113 566Q117 570 120 574T127 583Q139 594 152 603T173 627Q210 653 244 681T317 734Q318 737 318 743T322 752L330 756ZM329 516Q331 535 330 554T326 584Q322 582 317 580T310 573Q296 564 287 558T270 543Q266 541 258 536T246 527Q235 515 230 510T217
500Q213 496 211 492T203 483Q199 480 194 479T189 470Q182 467 179 459Q185 449 195 439T218 420T242 403T263 388Q272 383 279 375T295 361Q300 356 304 352T315 344L324 354Q324 386 327 418T330 482Q330 491 330 499T329 516Z" />
<glyph unicode="&#xb7;" glyph-name="middot" horiz-adv-x="153" d="M92 415Q102 416 106 408T117 398Q126 386 129 383T132 372Q140 370 150 360Q153 354 153 347Q153 339 152 335Q147 330 142 326T133 314Q121 306 112 298T89 282Q83 277 78 273T65 266Q65 270
62 271T56 275Q56 288 42 293Q39 301 33 307T22 323Q22 329 20 332T15 338Q5 338 3 344T0 359Q2 367 5 370T10 379Q21 388 36 403T62 424Q64 426 69 426T78 426H89Q91 422 92 421T92 415Z" />
<glyph unicode="&#xb8;" glyph-name="cedilla" horiz-adv-x="364" d="M128 121Q140 118 141 119T144 120Q150 120 151 118T155 113Q155 106 156 104T158 98Q158 93 157 89T156 79Q156 74 155 70T154 61Q154 57 154 54T155 47Q169 45 183 45T212 45Q219 45 225
45T238 46Q248 46 257 46T278 43Q289 42 290 35T292 25Q292 0 290 -24T285 -73Q285 -81 284 -87T283 -98Q283 -111 281 -116T275 -122T267 -125T260 -130Q246 -130 238 -129T222 -127Q215 -127 208 -127T194 -130Q182 -129 176 -131Q160 -133 143 -133T108 -134Q104
-134 101 -134T95 -133Q89 -129 85 -129T82 -118Q78 -104 76 -102Q77 -92 76 -87T74 -77Q77 -69 80 -69T86 -65Q101 -66 106 -63Q114 -62 121 -62T137 -63Q147 -62 150 -62T157 -62Q167 -62 185 -60T213 -56Q214 -48 214 -41T215 -27Q205 -18 199 -19T185 -20Q169
-18 163 -18T150 -19Q139 -19 130 -19T116 -15Q110 -14 104 -15T95 -16Q85 -16 82 -16T75 -14Q73 -12 73 -8T72 -1Q74 19 75 37T76 76Q76 81 78 89T81 106Q82 116 82 118T83 123Q94 122 105 122T128 121Z" />
<glyph unicode="&#xb9;" glyph-name="onesuperior" horiz-adv-x="273" d="M187 275Q171 280 164 279T148 275Q138 279 137 278Q130 285 128 283T121 281L112 292Q112 295 112 299T111 306Q113 322 113 338T113 372Q113 380 112 389T111 407Q111 436 111 465T110
525Q110 533 111 541T112 557Q112 578 112 598T113 639Q99 637 98 633Q93 631 89 628T79 622Q65 631 60 634T49 639Q47 644 43 647T36 656Q31 658 26 662T20 672Q20 677 24 680T29 690Q39 704 49 717T71 744Q76 749 80 753T88 762Q105 766 114 771Q114 777 117
783Q125 784 128 781Q128 777 128 774T129 769Q140 773 142 776T146 782Q155 783 159 783Q170 779 169 780T172 782Q177 782 180 780T188 778Q199 744 199 714T200 654Q200 636 199 617T198 579Q198 572 198 566T199 552Q199 534 199 517T200 482Q200 472 200 463T201
444Q201 433 200 423T200 401Q200 396 201 390T202 379Q202 365 202 352T201 325V295Q193 285 193 282T188 275H187Z" />
<glyph unicode="&#xba;" glyph-name="ordmasculine" horiz-adv-x="441" d="M408 546Q407 543 405 541T403 535Q406 531 408 529T411 522Q407 507 404 503T399 494Q396 491 395 488T391 483Q388 481 387 478T383 473Q382 469 376 459T363 438T348 415T338 400Q338
398 330 385T312 356T293 324T281 305Q277 299 273 295T266 284Q260 280 256 274T247 263Q238 263 236 271Q224 266 223 264T219 260Q213 261 209 264T198 267Q196 271 192 274T186 282Q186 282 177 295T155 326T133 359T120 380Q118 384 116 388T110 395Q108 400
105 403T98 411Q81 432 63 460T31 514Q34 525 34 530T38 540Q44 555 47 562T56 575Q64 587 67 594T75 610Q78 612 80 615T85 623Q87 630 91 635T97 647Q102 651 104 659Q113 665 116 676Q128 688 132 702Q143 713 145 721Q150 724 152 728T158 737Q163 746 166
752T173 764Q178 764 179 767T184 770Q186 778 188 782Q195 789 195 789T193 792Q207 796 209 796T218 791Q225 792 227 789T234 784Q237 782 239 780T245 775Q250 767 256 758T268 741Q276 731 284 722T299 700Q301 697 306 689T319 670T332 652T340 643Q341 640
348 630T363 610T378 590T389 577Q396 566 399 559T408 546ZM249 414Q256 425 260 433T268 450Q270 451 275 458T285 475T296 492T302 503Q306 506 307 510T313 518Q305 541 294 556T272 587Q269 591 267 593T262 601Q254 607 246 619T232 639Q227 647 223 653T214
668Q202 655 196 647T185 631Q175 615 165 597Q161 591 152 577T139 557Q134 550 131 545T124 531Q126 527 130 520T140 506T149 492T154 483Q159 478 162 472T171 461Q174 456 177 452T184 441Q188 437 193 428T205 409T216 391T224 380Q231 388 236 397T249 414Z"
/>
<glyph unicode="&#xbb;" glyph-name="guillemotright" horiz-adv-x="490" d="M273 445Q274 453 278 460T291 467Q305 455 318 445T339 428Q369 401 399 375T458 322Q462 312 465 311T470 306Q467 300 464 299T458 295Q455 287 450 281T440 268Q440 264 438 262T434
256Q423 249 418 238T400 220Q394 212 379 197T345 165T310 137T284 125Q275 125 274 132T268 143Q266 145 263 149T259 154Q248 162 242 173T231 191Q243 201 249 207T264 220Q266 224 273 230T288 244T303 259T315 273Q317 284 326 290T341 305Q328 319 313 330T284
354Q275 362 267 372T251 388Q246 392 241 394T230 402Q240 414 249 419Q253 424 254 430Q261 434 265 437Q263 442 267 443T273 445ZM69 445Q70 453 74 460T86 467Q100 455 113 445T134 428Q164 401 194 375T253 322Q257 312 260 311T265 306Q262 300 259 299T253
295Q247 281 236 268Q236 264 233 262T229 256Q218 249 213 238T196 220Q190 212 175 197T141 165T105 137T79 125Q71 125 70 132T63 143Q61 145 58 149T54 154Q43 162 38 173T27 191Q38 201 44 207T59 220Q62 224 68 230T83 244T99 259T111 273Q113 284 122 290T136
305Q123 319 108 330T79 354Q71 362 63 372T46 388Q41 392 36 394T26 402Q34 413 44 419Q48 424 49 430Q56 434 60 437Q58 442 62 443T69 445Z" />
<glyph unicode="&#xbc;" glyph-name="onequarter" horiz-adv-x="781" d="M505 687Q505 674 502 662Q500 656 497 646T489 626T481 605T474 589Q468 575 464 562T454 537Q452 531 449 527T443 517Q438 507 436 496T429 474Q418 443 406 413T383 351Q370 309 354
269T324 185Q321 182 317 174Q315 167 306 143T287 90T267 38T254 8Q248 9 246 13T239 20Q232 20 226 14Q219 19 211 19T199 28Q195 28 192 27T185 26Q178 30 178 38Q178 43 179 46T181 55Q181 57 180 59T179 66Q180 76 185 90T197 121T210 153T220 177Q235 215
249 254T279 332Q291 364 301 397T326 463Q328 469 330 475T334 488Q342 502 347 517T357 549Q363 564 368 579T381 608Q391 630 400 652T417 696L428 729Q441 728 446 722Q454 722 458 722Q467 722 474 713Q488 716 488 711T493 706Q503 709 504 700T505 687ZM740
217Q738 213 738 205Q737 197 736 196T735 193Q724 170 724 156Q722 152 719 149T713 142Q696 142 694 143Q686 141 677 141T660 138Q660 130 660 122T659 105Q659 92 661 80T663 54Q663 42 663 28T657 1Q655 0 650 -2T643 -4Q636 -3 632 -9Q623 -10 623 -9T618
-7Q606 -14 602 -15T593 -17Q584 -19 583 -21T581 -24Q579 -24 578 -20T573 -14Q573 -10 571 -2Q567 15 568 32T569 60Q569 75 568 96T565 132Q548 131 536 131T512 130Q509 130 502 129T488 127T475 125T465 123Q461 121 458 120T451 117Q431 114 413 114Q404
120 402 120T398 122Q394 129 393 131T390 136Q382 134 378 136T368 144Q370 152 374 156T381 167Q393 179 398 187T409 203Q414 208 418 212T426 222Q433 231 439 241T453 260Q469 284 485 307T516 354Q524 368 538 388T561 421Q573 436 585 451T608 484Q612 489
614 491T621 499Q625 506 628 508T634 512Q638 511 641 512T648 514Q657 514 665 506Q666 503 666 500T668 495Q668 481 670 468T679 444Q673 431 670 428T664 420Q670 409 671 404Q669 387 668 371T665 338Q664 331 663 324T662 310Q662 299 662 288T663 264Q663
257 661 249T659 233Q679 225 691 227T718 229Q728 229 732 228Q735 226 736 223T740 217ZM574 213Q576 236 577 259T581 306Q571 300 565 292T553 272Q550 271 548 269T543 266Q539 260 533 252T520 236T508 220T503 205Q520 206 538 207T574 213ZM187 275Q171
280 164 279T148 275Q138 279 137 278Q130 285 128 283T121 281L112 292Q112 295 112 299T111 306Q113 322 113 338T113 372Q113 380 112 389T111 407Q111 436 111 465T110 525Q110 533 111 541T112 557Q112 578 112 598T113 639Q99 637 98 633Q93 631 89 628T79
622Q65 631 60 634T49 639Q47 644 43 647T36 656Q31 658 26 662T20 672Q20 677 24 680T29 690Q39 704 49 717T71 744Q76 749 80 753T88 762Q105 766 114 771Q114 777 117 783Q125 784 128 781Q128 777 128 774T129 769Q140 773 142 776T146 782Q155 783 159 783Q170
779 169 780T172 782Q177 782 180 780T188 778Q199 744 199 714T200 654Q200 636 199 617T198 579Q198 572 198 566T199 552Q199 534 199 517T200 482Q200 472 200 463T201 444Q201 433 200 423T200 401Q200 396 201 390T202 379Q202 365 202 352T201 325V295Q193
285 193 282T188 275H187Z" />
<glyph unicode="&#xbd;" glyph-name="onehalf" horiz-adv-x="798" d="M506 695Q506 690 506 683T504 670Q502 664 499 654T491 634T483 613T476 597Q470 584 466 571T456 545Q454 540 451 535T445 525Q440 515 437 504T430 482Q419 451 407 421T385 359Q371 317
355 277T326 194Q324 191 323 188T319 182Q317 175 308 151T289 98T269 46T255 16Q250 17 248 21T241 29Q235 29 227 23Q221 28 213 28T201 36Q197 36 194 35T186 34Q181 37 181 40T180 46Q180 51 181 55T182 63Q182 66 182 69T181 74Q182 84 187 98T199 129T212
161T222 185Q237 225 251 263T281 340Q293 372 303 405T327 471Q330 477 332 483T335 497Q343 511 348 526T359 557Q365 573 370 587T383 616Q392 638 401 660T419 705L430 737Q442 737 449 730Q456 730 460 730Q470 730 475 721Q490 724 490 719T495 714Q504 717
505 708T506 695ZM182 275Q166 280 159 279T143 275Q133 279 132 278Q125 285 123 283T116 281L106 292Q106 295 106 299T105 306Q108 322 108 338T108 372Q108 380 107 389T105 407Q105 436 105 465T104 525Q104 533 105 541T106 557Q106 578 106 598T108 639Q94
637 93 633Q88 631 84 628T74 622Q60 631 55 634T44 639Q42 644 38 647T31 656Q26 658 21 662T15 672Q15 677 19 680T24 690Q34 704 44 717T66 744Q71 749 75 753T83 762Q98 766 109 771Q109 777 112 783Q120 784 123 781Q123 777 123 774T124 769Q135 773 137
776T141 782Q149 783 154 783Q165 779 164 780T167 782Q172 782 175 780T183 778Q194 744 194 714T195 654Q195 636 194 617T193 579Q193 572 193 566T194 552Q194 534 194 517T195 482Q195 472 195 463T196 444Q196 433 195 423T195 401Q195 396 196 390T197 379Q197
365 197 352T196 325V295Q187 285 187 282T183 275H182ZM743 72Q743 69 744 67T746 60Q745 55 745 47T740 33Q739 25 737 18T733 2Q731 -1 729 -2T723 -5Q716 -5 710 -6T695 -7Q690 -7 686 -6T676 -4Q670 -4 663 -4T650 -3Q645 -3 641 -3T632 -2Q615 -2 600 -1T568
1Q559 0 555 0T547 1Q539 1 532 0T518 -1Q496 -1 475 -4Q471 -2 467 0T462 8Q462 13 463 18T464 28Q464 40 464 48T464 61Q462 68 463 70T466 75Q465 82 468 89T479 96Q481 98 487 105T495 114Q500 126 505 133T516 147Q523 158 528 169T542 191Q547 199 552 206T563
220Q580 246 598 270T631 322Q627 330 620 335T608 347Q582 379 551 406T495 466Q495 471 492 474T488 480Q491 488 493 489T498 494Q500 497 501 500T504 508Q506 510 507 513T510 518Q510 520 511 524T515 528Q520 533 528 541T542 552Q547 545 554 544Q585 516
612 481Q618 475 625 470T639 458Q644 454 647 449T655 439Q670 424 687 407T717 374Q721 369 723 363T728 352Q738 343 740 338Q736 322 726 301T703 258T676 216T652 183Q641 169 633 155T614 126L607 114Q605 107 601 103T596 91Q593 88 593 85T591 80Q604 77
617 77Q639 79 654 79T686 80Q695 78 700 78T712 80T723 82T732 83L743 72Z" />
<glyph unicode="&#xbe;" glyph-name="threequarters" horiz-adv-x="814" d="M258 403Q256 398 252 396T245 389Q242 387 240 384T233 377Q225 369 214 360T198 340Q187 332 182 328T174 316Q167 310 163 306T156 297Q149 291 145 288T137 280Q131 277 128 271Q113
255 100 251Q92 253 88 258T76 267Q74 269 73 273T70 279Q67 281 64 283T58 287Q52 288 50 291T47 296Q52 308 58 314T75 330Q89 341 101 354T126 381Q138 394 151 406T176 432Q171 437 166 442T154 452Q151 455 142 462T123 477T103 491T90 500Q88 505 83 507T74
514Q71 527 73 528T75 531Q70 544 74 548T78 557Q84 562 90 566T101 577Q104 579 106 582T112 588Q118 591 120 591T124 594Q134 605 145 615T166 636Q164 641 160 643T152 651Q147 654 144 657T135 665Q125 672 111 683T84 705T59 729T41 751Q49 762 51 765T55
773Q60 776 62 780T73 787Q77 797 79 800T84 805Q89 804 99 800Q107 789 118 781T139 764Q153 750 169 740T199 716Q213 702 228 691T254 665Q255 660 257 656T260 648V635Q267 629 268 628T269 624Q264 615 255 607T236 588T216 568T205 556Q201 551 196 548T188
539Q188 539 200 528T226 505T252 481T267 468Q268 466 270 463T272 458Q273 453 275 451T276 444Q280 441 281 438T284 432Q283 429 282 427T279 421Q272 418 268 413T258 403ZM773 217Q771 213 771 205Q770 197 769 196T768 193Q758 172 758 156Q756 152 753
149T745 142Q730 142 727 143Q719 141 710 141T693 138Q693 130 693 122T692 105Q692 92 693 80T695 54Q695 42 695 28T690 1Q688 0 683 -2T676 -4Q668 -3 666 -9Q655 -10 655 -9T651 -7Q639 -14 635 -15T626 -17Q616 -19 616 -21T613 -24Q611 -24 610 -20T606
-14Q606 -10 604 -2Q600 15 601 32T602 60Q602 75 601 96T598 132Q581 131 569 131T545 130Q542 130 535 129T521 127T508 125T498 123Q494 121 491 120T483 117Q465 114 445 114Q436 120 435 120T431 122Q427 129 427 131T423 136Q415 134 411 136T400 144Q402
152 407 156T414 167Q426 179 431 187T441 203Q446 208 450 212T460 222Q466 231 472 241T485 260Q502 284 518 307T549 354Q557 368 571 388T594 421Q606 436 618 451T641 484Q645 489 647 491T653 499Q657 506 661 508T667 512Q671 511 674 512T681 514Q691 514
697 506Q699 503 699 500T700 495Q700 481 702 468T712 444Q707 431 703 428T697 420Q702 413 702 411T705 404Q702 387 701 371T697 338Q696 331 695 324T694 310Q694 299 695 288T696 264Q696 257 694 249T693 233Q713 225 725 227T751 229Q761 229 766 228Q768
226 769 223T773 217ZM607 213Q609 236 610 259T613 306Q604 300 598 292T586 272Q583 271 581 269T575 266Q567 254 552 237T536 205Q553 206 571 207T607 213ZM545 695Q545 682 542 670Q540 664 537 654T529 634T521 613T514 597Q508 584 504 571T494 545Q491
540 488 535T483 525Q478 515 476 504T469 482Q458 451 446 421T423 359Q409 317 393 277T364 194Q361 191 360 188T357 182Q355 175 346 151T327 98T307 46T294 16Q288 17 286 21T279 29Q272 29 266 23Q259 28 251 28T239 36Q234 36 231 35T225 34Q219 37 219
40T218 46Q218 51 219 55T220 63Q220 66 220 69T219 74Q220 84 225 98T237 129T250 161T260 185Q275 225 289 263T318 340Q331 372 341 405T366 471Q368 477 370 483T373 497Q381 511 386 526T397 557Q402 573 408 587T421 616Q431 638 440 660T457 705L468 737Q481
736 486 730Q494 730 498 730Q507 730 514 721Q528 724 528 719T532 714Q543 717 544 708T545 695Z" />
<glyph unicode="&#xbf;" glyph-name="questiondown" horiz-adv-x="464" d="M4 153Q0 169 2 174T6 185Q12 194 12 197T15 203Q17 206 19 208T24 214Q28 224 35 232T44 242Q46 247 49 250T55 258Q59 268 69 276Q76 289 85 299T101 323Q116 334 120 350Q129 357 130
365Q138 371 142 380T155 395Q160 406 167 415T179 434Q185 448 196 461Q194 477 194 496T193 532Q193 537 195 542T201 551Q212 550 213 551Q217 551 218 548T223 545Q227 545 230 547T236 550Q241 550 251 546Q258 550 267 550Q271 550 275 549T283 545Q285 545
287 547T295 549Q302 549 309 544Q314 523 313 504T314 465Q316 457 316 450Q316 443 316 437T317 425Q298 397 281 368T242 313Q225 293 209 272T174 230Q168 223 163 217T153 203Q154 198 161 190T173 178Q176 175 179 174T186 170Q199 161 201 160Q205 157 212
153T226 144T240 135T250 127Q259 129 261 128Q269 135 279 144T294 165Q302 169 307 179Q314 184 318 190T328 201Q336 209 340 211T350 223Q354 226 357 229T365 238Q370 241 376 246T388 251Q394 237 404 237Q411 230 411 227T414 223Q421 221 422 217T429 213Q439
210 444 205T454 195Q452 191 451 188T449 181Q442 178 440 170Q434 165 425 153T405 128T386 101T374 81Q359 67 345 53T314 27Q312 23 305 19T290 10T274 2T262 -4Q249 -1 245 -2T236 -3Q228 -3 224 -2Q211 -6 207 -2T195 2Q187 8 181 15T169 30Q157 42 142 51T112
73Q109 76 106 79T99 87Q93 92 87 96T75 105Q63 114 53 124T31 144Q15 153 4 153ZM227 626Q224 631 217 643T202 669T188 695T182 713Q182 723 181 728Q183 733 188 735T198 741Q211 740 211 751Q218 748 222 754Q233 749 238 753T246 759Q249 759 252 759T258
757Q267 766 271 768T282 771Q287 765 293 754T303 740Q311 723 318 705T334 670Q333 662 328 659T314 655Q309 653 307 648T299 643Q292 638 284 637T270 630Q258 633 251 630T241 625L227 626Z" />
<glyph unicode="&#xc0;" glyph-name="Agrave" horiz-adv-x="556" d="M95 16Q92 14 89 12T83 8Q72 2 63 2T43 -9Q39 -4 37 -4T30 -4Q17 -4 15 3Q11 2 3 -2T-10 -8Q-1 5 2 12T5 25T6 37T11 56Q13 60 14 64T17 73Q22 88 25 107T37 140Q37 157 44 172T57 203Q59 209
62 215T68 227Q72 237 74 246T80 265Q88 294 96 322T111 380Q112 385 113 391T117 402Q122 417 123 432T133 462Q132 469 133 475T137 488T141 501T144 510Q149 523 151 533T162 556Q162 556 165 566T172 590T179 614T182 628Q184 636 185 643T189 658Q191 663
193 666T197 675Q200 686 203 702T211 727Q214 734 222 738T237 748Q255 746 263 750T280 760Q285 759 289 758T299 756Q318 735 325 713T340 669Q343 658 346 648T353 627Q354 624 356 621T360 613Q365 605 368 596T375 578Q381 571 384 562T389 543T395 525T404
510Q406 499 411 489T418 466Q424 458 432 436T448 387T463 337T473 303Q475 295 481 283T492 260Q496 249 500 237T508 214Q510 203 512 193T518 172Q520 165 524 160T530 146Q534 138 535 131T542 116Q541 105 543 102T547 95Q551 74 556 62T561 35Q561 23 557
20T545 10Q537 3 532 -1T515 -5Q503 -4 501 -8T497 -15Q485 -14 482 -14T475 -15T468 -16T460 -23Q453 -15 447 -9T435 6Q435 23 431 46T421 82Q411 108 403 133T386 184Q383 195 380 204T372 223Q374 215 374 207T368 190Q366 188 362 185T358 180Q346 170 337
161Q338 143 332 136T319 123Q302 122 298 125T287 129Q283 130 279 130T271 129Q263 129 256 133Q253 135 252 137T248 141Q240 149 230 154T209 164Q201 171 193 178T175 191Q167 172 163 158T152 129Q141 95 134 70T118 18Q114 17 111 15T102 13L95 16ZM193
229Q201 243 207 244T219 252Q221 254 223 257T229 263Q232 265 236 267T243 272Q251 279 256 284T273 289Q290 289 301 281T328 269Q330 263 341 261T358 254Q348 279 343 304T329 355Q323 377 315 398T299 440Q292 460 287 479T274 516Q266 498 258 472T246 426Q246
417 245 412Q243 405 241 400T237 388Q224 349 214 309T189 229H193ZM146 979Q158 968 168 961T187 947Q222 921 255 896T322 844Q324 841 324 833T325 820Q319 810 318 810T315 809Q312 802 310 800T307 794Q303 791 299 790T291 785Q269 785 259 792Q254 794
244 802T221 819T197 837T180 850Q172 855 165 861T149 873Q133 887 117 899T84 925Q82 934 84 938T88 949T93 960T97 968Q121 982 134 982Q141 982 145 980L146 979Z" />
<glyph unicode="&#xc1;" glyph-name="Aacute" horiz-adv-x="556" d="M95 16Q92 14 89 12T83 8Q72 2 63 2T43 -9Q39 -4 37 -4T30 -4Q17 -4 15 3Q11 2 3 -2T-10 -8Q-1 5 2 12T5 25T6 37T11 56Q13 60 14 64T17 73Q22 88 25 107T37 140Q37 157 44 172T57 203Q59 209
62 215T68 227Q72 237 74 246T80 265Q88 294 96 322T111 380Q112 385 113 391T117 402Q122 417 123 432T133 462Q132 469 133 475T137 488T141 501T144 510Q149 523 151 533T162 556Q162 556 165 566T172 590T179 614T182 628Q184 636 185 643T189 658Q191 663
193 666T197 675Q200 686 203 702T211 727Q214 734 222 738T237 748Q255 746 263 750T280 760Q285 759 289 758T299 756Q318 735 325 713T340 669Q343 658 346 648T353 627Q354 624 356 621T360 613Q365 605 368 596T375 578Q381 571 384 562T389 543T395 525T404
510Q406 499 411 489T418 466Q424 458 432 436T448 387T463 337T473 303Q475 295 481 283T492 260Q496 249 500 237T508 214Q510 203 512 193T518 172Q520 165 524 160T530 146Q534 138 535 131T542 116Q541 105 543 102T547 95Q551 74 556 62T561 35Q561 23 557
20T545 10Q537 3 532 -1T515 -5Q503 -4 501 -8T497 -15Q485 -14 482 -14T475 -15T468 -16T460 -23Q453 -15 447 -9T435 6Q435 23 431 46T421 82Q411 108 403 133T386 184Q383 195 380 204T372 223Q374 215 374 207T368 190Q366 188 362 185T358 180Q346 170 337
161Q338 143 332 136T319 123Q302 122 298 125T287 129Q283 130 279 130T271 129Q263 129 256 133Q253 135 252 137T248 141Q240 149 230 154T209 164Q201 171 193 178T175 191Q167 172 163 158T152 129Q141 95 134 70T118 18Q114 17 111 15T102 13L95 16ZM193
229Q201 243 207 244T219 252Q221 254 223 257T229 263Q232 265 236 267T243 272Q251 279 256 284T273 289Q290 289 301 281T328 269Q330 263 341 261T358 254Q348 279 343 304T329 355Q323 377 315 398T299 440Q292 460 287 479T274 516Q266 498 258 472T246 426Q246
417 245 412Q243 405 241 400T237 388Q224 349 214 309T189 229H193ZM376 969Q380 971 387 971Q395 971 402 969T417 964Q425 954 427 949T432 938T437 928T439 922Q421 900 405 888T372 862Q364 857 357 851T341 839Q335 835 324 826T301 808T278 791T263 781Q251
773 239 769Q226 777 222 778T214 783Q213 787 211 789T207 794Q200 800 198 804Q196 813 196 821T199 833Q233 859 266 884T334 936Q343 943 353 950T373 965L376 969Z" />
<glyph unicode="&#xc2;" glyph-name="Acircumflex" horiz-adv-x="556" d="M95 16Q92 14 89 12T83 8Q72 2 63 2T43 -9Q39 -4 37 -4T30 -4Q17 -4 15 3Q11 2 3 -2T-10 -8Q-1 5 2 12T5 25T6 37T11 56Q13 60 14 64T17 73Q22 88 25 107T37 140Q37 157 44 172T57 203Q59
209 62 215T68 227Q72 237 74 246T80 265Q88 294 96 322T111 380Q112 385 113 391T117 402Q122 417 123 432T133 462Q132 469 133 475T137 488T141 501T144 510Q149 523 151 533T162 556Q162 556 165 566T172 590T179 614T182 628Q184 636 185 643T189 658Q191
663 193 666T197 675Q200 686 203 702T211 727Q214 734 222 738T237 748Q255 746 263 750T280 760Q285 759 289 758T299 756Q318 735 325 713T340 669Q343 658 346 648T353 627Q354 624 356 621T360 613Q365 605 368 596T375 578Q381 571 384 562T389 543T395 525T404
510Q406 499 411 489T418 466Q424 458 432 436T448 387T463 337T473 303Q475 295 481 283T492 260Q496 249 500 237T508 214Q510 203 512 193T518 172Q520 165 524 160T530 146Q534 138 535 131T542 116Q541 105 543 102T547 95Q551 74 556 62T561 35Q561 23 557
20T545 10Q537 3 532 -1T515 -5Q503 -4 501 -8T497 -15Q485 -14 482 -14T475 -15T468 -16T460 -23Q453 -15 447 -9T435 6Q435 23 431 46T421 82Q411 108 403 133T386 184Q383 195 380 204T372 223Q374 215 374 207T368 190Q366 188 362 185T358 180Q346 170 337
161Q338 143 332 136T319 123Q302 122 298 125T287 129Q283 130 279 130T271 129Q263 129 256 133Q253 135 252 137T248 141Q240 149 230 154T209 164Q201 171 193 178T175 191Q167 172 163 158T152 129Q141 95 134 70T118 18Q114 17 111 15T102 13L95 16ZM193
229Q201 243 207 244T219 252Q221 254 223 257T229 263Q232 265 236 267T243 272Q251 279 256 284T273 289Q290 289 301 281T328 269Q330 263 341 261T358 254Q348 279 343 304T329 355Q323 377 315 398T299 440Q292 460 287 479T274 516Q266 498 258 472T246 426Q246
417 245 412Q243 405 241 400T237 388Q224 349 214 309T189 229H193ZM433 856Q437 848 439 844T442 836T444 827T445 812Q445 806 444 796T438 781Q432 781 427 779T417 773Q406 778 398 785T377 796Q372 800 370 804T360 809Q351 818 343 826T327 843Q320 845
314 850T301 857Q287 846 270 832T238 809Q235 805 231 802T224 794Q219 792 214 786T205 776Q194 772 186 766T166 758Q154 761 152 776Q149 780 146 783T137 788Q135 795 136 807T135 823Q140 828 144 833T154 843Q184 875 212 895T267 936Q272 938 278 938T289
940Q301 935 313 930T335 919Q348 914 359 904T382 886Q395 878 408 872T433 856Z" />
<glyph unicode="&#xc3;" glyph-name="Atilde" horiz-adv-x="556" d="M95 16Q92 14 89 12T83 8Q72 2 63 2T43 -9Q39 -4 37 -4T30 -4Q17 -4 15 3Q11 2 3 -2T-10 -8Q-1 5 2 12T5 25T6 37T11 56Q13 60 14 64T17 73Q22 88 25 107T37 140Q37 157 44 172T57 203Q59 209
62 215T68 227Q72 237 74 246T80 265Q88 294 96 322T111 380Q112 385 113 391T117 402Q122 417 123 432T133 462Q132 469 133 475T137 488T141 501T144 510Q149 523 151 533T162 556Q162 556 165 566T172 590T179 614T182 628Q184 636 185 643T189 658Q191 663
193 666T197 675Q200 686 203 702T211 727Q214 734 222 738T237 748Q255 746 263 750T280 760Q285 759 289 758T299 756Q318 735 325 713T340 669Q343 658 346 648T353 627Q354 624 356 621T360 613Q365 605 368 596T375 578Q381 571 384 562T389 543T395 525T404
510Q406 499 411 489T418 466Q424 458 432 436T448 387T463 337T473 303Q475 295 481 283T492 260Q496 249 500 237T508 214Q510 203 512 193T518 172Q520 165 524 160T530 146Q534 138 535 131T542 116Q541 105 543 102T547 95Q551 74 556 62T561 35Q561 23 557
20T545 10Q537 3 532 -1T515 -5Q503 -4 501 -8T497 -15Q485 -14 482 -14T475 -15T468 -16T460 -23Q453 -15 447 -9T435 6Q435 23 431 46T421 82Q411 108 403 133T386 184Q383 195 380 204T372 223Q374 215 374 207T368 190Q366 188 362 185T358 180Q346 170 337
161Q338 143 332 136T319 123Q302 122 298 125T287 129Q283 130 279 130T271 129Q263 129 256 133Q253 135 252 137T248 141Q240 149 230 154T209 164Q201 171 193 178T175 191Q167 172 163 158T152 129Q141 95 134 70T118 18Q114 17 111 15T102 13L95 16ZM193
229Q201 243 207 244T219 252Q221 254 223 257T229 263Q232 265 236 267T243 272Q251 279 256 284T273 289Q290 289 301 281T328 269Q330 263 341 261T358 254Q348 279 343 304T329 355Q323 377 315 398T299 440Q292 460 287 479T274 516Q266 498 258 472T246 426Q246
417 245 412Q243 405 241 400T237 388Q224 349 214 309T189 229H193ZM231 916Q237 906 239 905T244 901Q251 898 257 894Q263 887 263 886T262 882Q273 877 273 876T273 874Q277 865 276 858T272 849Q271 848 262 840T242 822T221 804T211 796Q204 795 198 797Q196
800 196 805T190 810Q188 813 187 816T184 822Q178 826 175 829Q169 841 168 843T165 847Q180 865 189 874T211 891Q213 895 215 897T219 905Q223 907 224 910T231 916ZM395 916Q401 906 403 905T407 901Q415 898 421 894Q427 887 427 886T426 882Q437 877 437
876T437 874Q441 865 440 858T436 849Q435 848 426 840T406 822T385 804T375 796Q366 795 362 797Q360 800 360 805T354 810Q352 813 351 816T348 822Q342 826 339 829Q333 841 332 843T329 847Q344 865 353 874T375 891Q377 895 379 897T383 905Q387 907 388 910T395
916Z" />
<glyph unicode="&#xc4;" glyph-name="Adieresis" horiz-adv-x="556" d="M95 16Q92 14 89 12T83 8Q72 2 63 2T43 -9Q39 -4 37 -4T30 -4Q17 -4 15 3Q11 2 3 -2T-10 -8Q-1 5 2 12T5 25T6 37T11 56Q13 60 14 64T17 73Q22 88 25 107T37 140Q37 157 44 172T57 203Q59
209 62 215T68 227Q72 237 74 246T80 265Q88 294 96 322T111 380Q112 385 113 391T117 402Q122 417 123 432T133 462Q132 469 133 475T137 488T141 501T144 510Q149 523 151 533T162 556Q162 556 165 566T172 590T179 614T182 628Q184 636 185 643T189 658Q191
663 193 666T197 675Q200 686 203 702T211 727Q214 734 222 738T237 748Q255 746 263 750T280 760Q285 759 289 758T299 756Q318 735 325 713T340 669Q343 658 346 648T353 627Q354 624 356 621T360 613Q365 605 368 596T375 578Q381 571 384 562T389 543T395 525T404
510Q406 499 411 489T418 466Q424 458 432 436T448 387T463 337T473 303Q475 295 481 283T492 260Q496 249 500 237T508 214Q510 203 512 193T518 172Q520 165 524 160T530 146Q534 138 535 131T542 116Q541 105 543 102T547 95Q551 74 556 62T561 35Q561 23 557
20T545 10Q537 3 532 -1T515 -5Q503 -4 501 -8T497 -15Q485 -14 482 -14T475 -15T468 -16T460 -23Q453 -15 447 -9T435 6Q435 23 431 46T421 82Q411 108 403 133T386 184Q383 195 380 204T372 223Q374 215 374 207T368 190Q366 188 362 185T358 180Q346 170 337
161Q338 143 332 136T319 123Q302 122 298 125T287 129Q283 130 279 130T271 129Q263 129 256 133Q253 135 252 137T248 141Q240 149 230 154T209 164Q201 171 193 178T175 191Q167 172 163 158T152 129Q141 95 134 70T118 18Q114 17 111 15T102 13L95 16ZM193
229Q201 243 207 244T219 252Q221 254 223 257T229 263Q232 265 236 267T243 272Q251 279 256 284T273 289Q290 289 301 281T328 269Q330 263 341 261T358 254Q348 279 343 304T329 355Q323 377 315 398T299 440Q292 460 287 479T274 516Q266 498 258 472T246 426Q246
417 245 412Q243 405 241 400T237 388Q224 349 214 309T189 229H193ZM214 934Q220 924 222 923T227 919Q234 916 240 912Q246 905 246 904T245 900Q256 895 256 894T256 892Q260 883 259 876T255 867Q254 866 245 858T225 840T204 822T194 814Q187 813 181 815Q179
818 179 823T173 828Q171 831 170 834T167 840Q161 844 158 847Q152 859 151 861T148 865Q163 883 172 892T194 909Q196 913 198 915T202 923Q206 925 207 928T214 934ZM378 934Q384 924 386 923T390 919Q398 916 404 912Q410 905 410 904T409 900Q420 895 420
894T420 892Q424 883 423 876T419 867Q418 866 409 858T389 840T368 822T358 814Q349 813 345 815Q343 818 343 823T337 828Q335 831 334 834T331 840Q325 844 322 847Q316 859 315 861T312 865Q327 883 336 892T358 909Q360 913 362 915T366 923Q370 925 371 928T378
934Z" />
<glyph unicode="&#xc5;" glyph-name="Aring" horiz-adv-x="556" d="M95 16Q92 14 89 12T83 8Q72 2 63 2T43 -9Q39 -4 37 -4T30 -4Q17 -4 15 3Q11 2 3 -2T-10 -8Q-1 5 2 12T5 25T6 37T11 56Q13 60 14 64T17 73Q22 88 25 107T37 140Q37 157 44 172T57 203Q59 209
62 215T68 227Q72 237 74 246T80 265Q88 294 96 322T111 380Q112 385 113 391T117 402Q122 417 123 432T133 462Q132 469 133 475T137 488T141 501T144 510Q149 523 151 533T162 556Q162 556 165 566T172 590T179 614T182 628Q184 636 185 643T189 658Q191 663
193 666T197 675Q200 686 203 702T211 727Q214 734 222 738T237 748Q255 746 263 750T280 760Q285 759 289 758T299 756Q318 735 325 713T340 669Q343 658 346 648T353 627Q354 624 356 621T360 613Q365 605 368 596T375 578Q381 571 384 562T389 543T395 525T404
510Q406 499 411 489T418 466Q424 458 432 436T448 387T463 337T473 303Q475 295 481 283T492 260Q496 249 500 237T508 214Q510 203 512 193T518 172Q520 165 524 160T530 146Q534 138 535 131T542 116Q541 105 543 102T547 95Q551 74 556 62T561 35Q561 23 557
20T545 10Q537 3 532 -1T515 -5Q503 -4 501 -8T497 -15Q485 -14 482 -14T475 -15T468 -16T460 -23Q453 -15 447 -9T435 6Q435 23 431 46T421 82Q411 108 403 133T386 184Q383 195 380 204T372 223Q374 215 374 207T368 190Q366 188 362 185T358 180Q346 170 337
161Q338 143 332 136T319 123Q302 122 298 125T287 129Q283 130 279 130T271 129Q263 129 256 133Q253 135 252 137T248 141Q240 149 230 154T209 164Q201 171 193 178T175 191Q167 172 163 158T152 129Q141 95 134 70T118 18Q114 17 111 15T102 13L95 16ZM193
229Q201 243 207 244T219 252Q221 254 223 257T229 263Q232 265 236 267T243 272Q251 279 256 284T273 289Q290 289 301 281T328 269Q330 263 341 261T358 254Q348 279 343 304T329 355Q323 377 315 398T299 440Q292 460 287 479T274 516Q266 498 258 472T246 426Q246
417 245 412Q243 405 241 400T237 388Q224 349 214 309T189 229H193ZM377 961Q375 952 374 950T373 946Q382 949 384 949T388 949Q390 946 392 940T394 929Q394 903 392 877T387 825Q379 815 378 813T373 810Q371 805 371 799T366 790Q347 785 336 785T314 785Q304
785 294 784T273 782Q267 783 264 783T256 782Q250 782 245 780T233 779Q228 777 222 776T211 773Q199 776 190 781Q190 787 190 789T191 793Q188 799 181 804T172 816Q171 821 170 825T166 835Q170 851 173 870T176 905Q175 919 175 924T176 934Q178 938 179 941T180
947L196 950Q195 958 195 963Q195 970 199 974Q216 979 233 981T267 984Q280 984 293 984T320 985Q335 988 339 989T349 990L361 988Q365 988 367 983T372 975Q374 966 374 964T377 961ZM241 916Q236 907 235 896T230 875Q229 870 228 865T227 854Q227 846 231
843Q255 846 278 846T325 850Q329 867 329 883T330 917Q322 919 314 919T298 920Q284 920 270 919T241 916Z" />
<glyph unicode="&#xc6;" glyph-name="AE" horiz-adv-x="762" d="M374 239Q368 221 368 212T364 194Q361 188 357 185T355 176Q345 170 338 158Q339 155 339 153T340 147Q340 139 336 132T327 118Q318 117 316 118T311 121T304 124T291 126Q279 131 278 134T274
139Q268 146 260 153T244 165Q239 171 234 177T224 189Q220 195 216 197T211 207Q211 213 214 219T221 228Q230 233 231 236T233 242Q237 244 240 246T247 250Q252 254 254 259T260 269Q262 272 265 274T270 281Q275 286 279 292T292 298Q305 298 312 289T332 276Q333
272 340 269T354 261T368 251T374 239ZM762 11Q762 4 757 1Q749 1 749 -1T744 -6Q736 -10 720 -10T693 -9Q688 -9 684 -9T674 -11Q672 -12 668 -14T662 -16Q654 -16 651 -14T641 -10Q633 -1 628 8T614 28Q608 35 601 40T589 54Q573 75 557 96T524 137Q516 148 508
157T490 177Q482 187 476 198T462 221Q456 230 446 244T423 273T400 301T380 321Q379 327 375 330T366 337Q364 341 362 344T358 352Q347 379 339 400T322 442Q313 464 306 486T289 528Q283 520 278 507T267 479T257 451T252 427Q251 423 251 420T250 413Q248 406
246 401T241 390Q228 353 218 316T194 243Q188 229 182 215T169 187Q167 182 166 177T163 167Q159 158 155 149T146 130Q135 97 128 72T111 24Q109 23 104 21T98 18Q86 22 83 18T74 12Q63 7 52 7T32 -2Q29 2 25 2T16 1Q5 1 6 4T0 8Q-3 13 -3 28T2 54Q4 59 5 63T8
71Q13 87 16 106T30 138Q30 150 34 158T41 177Q49 188 52 201T65 225Q77 263 89 301T112 379Q115 390 119 401T125 423Q127 433 128 442T137 460Q136 470 138 475T142 487T147 500T150 508Q154 517 156 528T164 548Q171 559 172 564T176 575L191 626Q194 634 195
641T200 656Q202 661 203 665T207 673Q210 683 214 700T223 725Q225 730 234 734T248 741Q278 740 295 755Q303 753 309 751T323 751Q333 731 340 710T356 667Q360 656 363 645T371 625Q373 622 375 619T379 612Q389 595 395 575Q402 569 405 560T411 542T417 523T428
508Q428 504 429 501T432 494Q448 521 465 546T501 598Q514 618 526 636T552 675Q558 684 566 695T584 719T604 741T624 757Q639 758 644 751T658 743Q672 740 676 735T685 725Q698 725 707 720T724 706Q721 695 715 686T703 668Q695 664 692 657T682 646Q672 629
661 614T639 583Q633 574 626 567T614 552Q612 549 611 546T608 539Q596 520 582 504T556 467Q552 460 550 453T543 438Q538 432 531 422T516 401T504 379T499 361Q500 356 511 342T537 312T564 280T582 262Q583 257 596 241T625 206T656 170T676 144Q687 130 697
117T717 88L735 58Q743 48 749 41T760 22Q762 14 762 11ZM725 349Q725 344 723 338T720 327Q719 321 719 315T715 303Q711 298 705 297T693 292Q691 290 687 285T679 274T672 263T669 254Q657 253 653 253T645 253Q633 263 622 268Q619 276 612 287T600 304L593
314Q578 334 566 353T547 397Q566 411 577 418T599 431T622 443T644 457Q652 456 655 455T659 453T662 449T669 444Q673 431 683 418Q685 414 689 411T696 403Q698 401 700 395T705 385Q708 377 716 367T725 349Z" />
<glyph unicode="&#xc7;" glyph-name="Ccedilla" horiz-adv-x="410" d="M302 -27Q302 -35 302 -38T303 -45Q317 -47 331 -47T360 -47Q368 -47 374 -47T386 -46Q396 -46 406 -46T426 -49Q437 -50 438 -57T440 -68Q440 -92 438 -116T433 -165Q433 -169 433 -175T431
-189T430 -203T428 -211Q426 -215 420 -216T409 -222Q393 -222 386 -221T370 -219Q362 -219 356 -219T342 -222Q331 -221 325 -223Q309 -225 290 -225T256 -226Q253 -226 250 -226T244 -225Q238 -221 233 -221T230 -210Q226 -197 224 -195Q225 -184 224 -179T222
-169Q225 -161 228 -161T234 -157Q239 -158 245 -158Q250 -158 254 -157T264 -156Q270 -156 279 -156T293 -154Q297 -155 305 -155Q315 -155 333 -153T361 -148Q362 -140 363 -133T364 -119Q353 -111 347 -112T334 -113Q323 -111 318 -111T308 -112T298 -112T293
-113Q287 -112 278 -112T264 -108Q258 -106 252 -108T244 -109Q230 -109 223 -106Q221 -104 221 -100T220 -93Q222 -74 223 -55T224 -16Q224 -11 226 -3T229 14Q229 24 229 28T229 34V52Q206 84 181 113T132 173Q124 184 117 195T102 218Q96 228 85 242T62 272T38
301T16 322Q16 329 12 332T3 339Q1 344 -2 348T-5 358Q-5 366 -2 372Q0 376 0 379T3 387Q8 399 17 409T32 432Q33 436 33 439T35 446Q38 454 44 459T55 472Q60 481 65 490T75 508Q86 525 97 542T119 577Q124 585 130 592T142 608Q156 628 168 648T195 687Q202 697
210 709T228 733T248 755T268 772Q285 773 290 766T305 758Q319 755 323 750T333 739Q346 739 355 734T373 719Q369 708 363 699T351 680Q343 676 340 669T329 657Q318 640 307 624T285 592Q278 584 271 576T259 560Q257 557 256 554T253 547Q240 528 226 510T200
472Q195 465 192 458T185 443Q181 437 173 427T158 405T145 382T140 364Q140 358 152 344T180 312T208 279T225 261Q227 256 240 240T269 204T302 166T324 139Q334 125 344 111T365 81Q370 73 375 66T385 51Q393 40 399 33T410 12Q412 -7 408 -7T398 -10Q385 -20
368 -20T341 -19Q336 -19 331 -19T321 -22Q315 -24 312 -26T302 -27Z" />
<glyph unicode="&#xc8;" glyph-name="Egrave" horiz-adv-x="469" d="M417 140Q425 127 429 115T433 98Q433 91 431 87T424 77Q384 60 345 46T264 17Q254 14 245 11T224 5Q222 3 217 1T206 -3T193 -6T185 -8Q183 -3 181 -2T177 0Q172 0 171 -3T164 -9Q159 -9 155
-9T148 -8Q140 -10 134 -15T119 -22Q104 -18 101 -18T93 -20Q86 -14 86 -3T81 15Q81 28 79 29T77 33Q77 40 78 46T77 59Q81 76 80 92T81 124Q81 129 81 133T82 143Q82 158 84 161T86 170Q86 177 86 183T85 198Q85 212 85 225T86 254Q86 292 81 330T76 406Q76 452
71 497T66 588Q66 596 66 610T66 640T66 670T68 690Q68 691 74 693T82 695Q87 695 90 693T97 688Q115 690 118 691T124 693Q130 693 133 690T139 687Q156 691 157 688T164 685Q177 689 180 688T186 687Q191 687 197 690T208 696Q225 701 236 706Q251 715 258 718T274
725Q291 732 306 739T339 755Q342 755 345 755T351 758Q354 757 357 757T364 757Q374 753 377 752Q381 746 384 741T393 730Q398 721 401 721Q401 718 398 715T395 708Q403 694 408 682T413 665Q413 658 411 654T406 644Q368 626 330 609T251 574Q241 570 232 566T212
559Q210 557 203 556T192 554Q194 537 194 521T196 487Q197 473 199 458T204 427Q237 441 269 455T335 483Q341 482 347 481T360 478Q362 476 364 473T369 468Q368 463 375 453T383 438Q383 430 385 429T389 420Q390 410 389 409Q394 404 397 399T400 387Q386 370
372 365T344 353Q339 351 334 348T323 342Q315 339 308 337T292 330Q279 323 266 315T238 303Q227 300 224 297T212 287V260V210Q212 200 212 190T211 168Q209 158 209 151V135Q214 137 219 138T229 142Q233 143 236 143T244 145Q249 146 252 147T259 150Q274 158
282 160T298 166Q315 172 331 178T363 191Q373 189 377 194Q382 193 385 192T394 191Q406 180 409 174T417 163Q422 154 424 154Q424 152 421 148T417 140ZM146 969Q158 958 168 951T187 937Q222 911 255 886T322 834Q324 831 324 823T325 810Q319 800 318 800T315
799Q312 792 310 790T307 784Q303 781 299 780T291 775Q269 775 259 782Q254 784 244 792T221 809T197 827T180 840Q172 845 165 851T149 863Q133 877 117 889T84 915Q82 924 84 928T88 939T93 950T97 958Q121 972 134 972Q141 972 145 970L146 969Z" />
</font>
</defs>
</svg>
